<?xml version="1.0" standalone="no"?>
<!DOCTYPE svg PUBLIC "-//W3C//DTD SVG 1.1//EN" "http://www.w3.org/Graphics/SVG/1.1/DTD/svg11.dtd" >
<svg xmlns="http://www.w3.org/2000/svg">
<metadata>Generated by IcoMoon</metadata>
<defs>
<font id="Simple-Line-Icons" horiz-adv-x="1024">
<font-face units-per-em="1024" ascent="960" descent="-64" />
<missing-glyph horiz-adv-x="1024" />
<glyph unicode="&#x20;" horiz-adv-x="512" d="" />
<glyph unicode="&#xe900;" glyph-name="actual-size" horiz-adv-x="1020" d="M740.522 618.781h152.448c23.473 0 42.492-19.104 42.492-42.663s-15.078-40.436-38.594-40.436h-247.497c-3.812-1.071-7.582-2.227-11.48-2.227-10.88 0-21.76 4.155-30.070 12.465-10.537 10.58-13.621 25.187-10.794 38.765v250.838c0 23.559 17.348 39.322 40.864 39.322 23.473 0 42.492-19.104 42.492-42.706v-153.005l267.544 268.529c16.62 16.663 43.52 16.663 60.14 0 16.577-16.663 16.577-43.648 0-60.311l-267.544-268.572zM425.303 64.032c0-23.559-19.018-42.663-42.535-42.663-23.473 0-42.492 19.104-42.492 42.663v153.005l-267.544-268.529c-8.31-8.353-19.19-12.508-30.070-12.508s-21.76 4.155-30.070 12.508c-16.577 16.663-16.577 43.648 0 60.354l267.544 268.529h-152.448c-23.473 0-42.492 19.104-42.492 42.663s19.018 42.706 42.492 42.706h255.079c5.568 0 11.051-1.157 16.277-3.298 10.366-4.326 18.676-12.636 22.959-23.088 2.185-5.226 3.298-10.751 3.298-16.32v-256.021zM382.769 533.455c-3.898 0-7.667 1.157-11.48 2.227h-245.441c-23.516 0-40.65 16.877-40.65 40.436s19.018 42.663 42.492 42.663h152.448l-267.544 268.572c-16.577 16.663-16.577 43.648 0 60.311 16.62 16.663 43.52 16.663 60.14 0l267.544-268.529v153.005c0 23.602 19.018 42.706 42.492 42.706 23.516 0 42.535-19.104 42.535-42.706v-256.021c0-10.923-4.155-21.846-12.465-30.198-8.31-8.31-19.19-12.465-30.070-12.465zM608.42 350.637c7.282 7.496 17.476 12.036 29.299 12.079 0.043 0 0.086 0.043 0.171 0.043h255.079c23.473 0 42.492-19.147 42.492-42.706s-19.018-42.663-42.492-42.663h-152.448l267.544-268.529c16.577-16.705 16.577-43.691 0-60.354-8.31-8.353-19.19-12.508-30.070-12.508s-21.76 4.155-30.070 12.508l-267.544 268.529v-153.005c0-23.559-19.018-42.663-42.492-42.663-23.516 0-40.864 19.575-40.864 43.134v246.983c-2.827 13.579 0.257 28.185 10.794 38.765 0.171 0.171 0.428 0.214 0.6 0.386z" />
<glyph unicode="&#xe901;" glyph-name="anchor" horiz-adv-x="1015" d="M995.285 201.515c-7.168-4.821-15.317-7.168-23.339-7.168-13.653 0-27.051 6.656-35.2 18.944l-23.339 35.328c-48.768-172.885-203.435-301.141-388.693-308.736-5.291-2.389-11.051-3.84-17.237-3.84-6.144 0-11.904 1.451-17.195 3.84-185.259 7.595-339.925 135.851-388.693 308.736l-23.381-35.328c-8.149-12.288-21.504-18.944-35.157-18.944-8.021 0-16.171 2.347-23.381 7.168-19.413 13.056-24.619 39.424-11.691 59.008l84.437 127.659c0.768 1.195 1.963 1.792 2.816 2.859 1.877 2.304 3.84 4.267 6.144 6.144 2.048 1.707 4.139 3.157 6.443 4.395 2.389 1.28 4.779 2.261 7.381 3.072 2.773 0.853 5.419 1.408 8.277 1.664 1.408 0.128 2.603 0.811 4.053 0.811 1.365 0 2.517-0.64 3.84-0.768 2.773-0.256 5.376-0.811 8.107-1.664 2.816-0.853 5.419-1.835 7.936-3.243 1.152-0.64 2.432-0.725 3.541-1.451l126.635-85.12c19.413-13.056 24.661-39.424 11.733-59.008-12.971-19.541-39.168-24.789-58.539-11.819l-48.128 32.341c35.328-131.456 145.749-231.979 282.624-249.301v635.264h-136.064c-23.296 0-42.197 19.029-42.197 42.539 0 23.552 18.901 42.581 42.197 42.581h86.357c-20.907 22.613-34.731 51.883-34.731 85.248 0 70.315 56.789 127.531 126.635 127.531s126.677-57.216 126.677-127.531c0-33.365-13.824-62.635-34.731-85.248h67.541c23.296 0 42.197-19.029 42.197-42.581 0-23.509-18.901-42.539-42.197-42.539h-117.248v-635.264c136.875 17.323 247.296 117.845 282.581 249.301l-48.085-32.341c-19.413-12.971-45.611-7.723-58.539 11.819-12.928 19.584-7.68 45.952 11.691 59.008l126.677 85.12c1.109 0.725 2.389 0.811 3.499 1.451 2.517 1.365 5.077 2.389 7.893 3.243 2.731 0.853 5.376 1.408 8.192 1.664 1.323 0.128 2.475 0.768 3.84 0.768 1.408 0 2.645-0.683 4.011-0.811 2.859-0.299 5.461-0.811 8.192-1.664 2.645-0.811 5.12-1.792 7.552-3.115 2.261-1.237 4.267-2.645 6.315-4.309 2.347-1.877 4.352-3.883 6.229-6.229 0.853-1.024 2.048-1.664 2.816-2.816l84.437-127.659c12.928-19.584 7.68-45.952-11.733-59.008zM507.477 875.136c-23.253 0-42.197-19.029-42.197-42.411 0-23.509 18.944-42.581 42.197-42.581 23.296 0 42.24 19.072 42.24 42.581 0 23.381-18.944 42.411-42.24 42.411z" />
<glyph unicode="&#xe902;" glyph-name="arrow-left" d="M1012.992 42.581c-1.323-22.571-19.925-40.021-42.112-40.021-0.768 0-1.579 0-2.389 0.043-23.211 1.323-41.003 21.291-39.808 44.715 0.128 3.584 2.773 95.189-74.197 175.829-71.936 75.435-189.269 116.224-348.032 122.368v-172.8c0-16.341-9.301-31.275-23.936-38.357-5.803-2.773-12.032-4.181-18.261-4.181-9.429 0-18.773 3.2-26.368 9.344l-422.187 340.352c-10.027 8.064-15.872 20.267-15.872 33.195s5.845 25.173 15.872 33.237l422.187 340.352c12.672 10.197 30.080 12.16 44.629 5.12 14.635-7.083 23.936-22.016 23.936-38.357v-175.915c77.013-6.571 240.981-35.669 363.179-163.413 106.88-111.659 155.136-270.293 143.36-471.509zM809.429 454.485c-135.509 142.123-342.443 140.459-344.32 139.819-0.171 0-0.299 0.085-0.427 0.085-0.171 0-0.299-0.085-0.427-0.085-0.853 0-1.451 0.555-2.261 0.597-21.717 1.664-39.467 18.731-39.893 41.088-0.171 7.808 2.347 14.805 5.888 21.205v113.451l-318.336-257.579 318.336-254.421v110.165c-3.456 6.187-5.973 12.928-5.973 20.523 0 23.509 18.901 42.539 42.24 42.539 195.499 0 342.741-45.995 438.144-136.789-20.181 62.293-51.2 115.541-92.971 159.403z" />
<glyph unicode="&#xe903;" glyph-name="arrow-right" d="M998.016 479.787l-422.144-340.395c-7.637-6.144-16.981-9.344-26.411-9.344-6.229 0-12.459 1.408-18.261 4.181-14.635 7.083-23.936 22.016-23.936 38.357v172.843c-158.763-6.144-276.096-46.933-348.032-122.368-76.971-80.683-74.325-172.288-74.197-176.171 0.939-23.296-16.981-43.179-40.107-44.288-0.683-0.043-1.408-0.043-2.133-0.043-22.187 0-40.747 17.323-42.069 39.893-11.776 201.216 36.48 359.851 143.317 471.552 122.283 127.787 286.208 157.099 363.221 163.584v175.787c0 16.384 9.301 31.275 23.936 38.357 14.507 7.040 31.957 5.163 44.672-5.12l422.144-340.395c10.027-8.064 15.829-20.309 15.829-33.237s-5.803-25.131-15.829-33.195zM591.701 764.843v-128.043c0-0.171-0.085-0.299-0.085-0.469s0.085-0.341 0.085-0.512c-0.085-3.2-1.28-6.016-2.005-8.96-0.555-2.347-0.597-4.821-1.536-6.955-1.195-2.816-3.243-5.035-4.992-7.467-1.408-1.963-2.389-4.224-4.053-5.888-2.219-2.219-5.035-3.541-7.68-5.205-1.92-1.237-3.541-2.901-5.675-3.797-5.035-2.133-10.539-3.328-16.299-3.328-0.341 0 1.024-0.043-1.877 0.043-16 0-212.821-2.987-343.296-139.861-41.771-43.861-72.789-97.109-92.971-159.403 95.403 90.795 242.645 136.789 438.144 136.789 23.339 0 42.24-19.072 42.24-42.539v-128.128l312.363 251.861-312.363 251.861z" />
<glyph unicode="&#xe904;" glyph-name="badge" horiz-adv-x="1019" d="M1012.565 171.392c8.661-14.464 8.021-32.768-1.621-46.592-9.728-13.824-26.667-20.821-43.093-17.323l-177.707 35.712-71.808-180.352c-6.272-15.659-21.077-26.155-37.845-26.795-0.555-0.043-1.067-0.043-1.579-0.043-16.171 0-31.019 9.259-38.187 23.893l-131.712 270.592-131.712-270.592c-7.125-14.635-21.973-23.893-38.144-23.893-0.555 0-1.067 0-1.579 0.043-16.811 0.64-31.616 11.136-37.888 26.795l-71.765 180.352-177.707-35.712c-16.512-3.413-33.451 3.499-43.093 17.323-9.685 13.824-10.283 32.085-1.621 46.592l182.571 304.043c2.133 3.627 5.163 6.272 8.149 9.003-17.835 41.259-28.203 86.443-28.203 134.229 0 188.203 153.301 341.333 341.632 341.333 188.373 0 341.675-153.131 341.675-341.333 0-48.213-10.197-94.037-28.331-135.68 2.432-2.389 5.077-4.48 6.912-7.552l182.656-304.043zM127.957 210.176l117.931 23.637c20.437 4.309 40.192-6.869 47.744-25.984l49.408-124.032 98.347 201.984c-78.891 16.171-147.285 59.264-196.224 119.552l-117.205-195.157zM509.653 874.368c-141.099 0-255.915-114.731-255.915-255.701 0-141.013 114.816-255.744 255.915-255.744s255.915 114.731 255.915 255.744c0 140.971-114.816 255.701-255.915 255.701zM774.187 402.987c-49.024-59.947-117.973-102.997-196.693-118.869l97.493-200.32 49.408 124.032c7.637 19.072 27.392 30.165 47.787 25.984l117.845-23.637-115.84 192.811z" />
<glyph unicode="&#xe905;" glyph-name="bag" d="M853.333-64h-682.667c-47.061 0-85.333 38.272-85.333 85.333v682.667c0 47.061 38.272 85.333 85.333 85.333h170.667v42.667c0 70.571 57.429 128 128 128h85.333c70.571 0 128-57.429 128-128v-42.667h170.667c47.061 0 85.333-38.272 85.333-85.333v-682.667c0-47.061-38.272-85.333-85.333-85.333zM597.333 832c0 23.509-19.157 42.667-42.667 42.667h-85.333c-23.509 0-42.667-19.157-42.667-42.667v-42.667h170.667v42.667zM682.667 704v-42.667c0-23.552-19.115-42.667-42.667-42.667s-42.667 19.115-42.667 42.667v42.667h-170.667v-42.667c0-23.552-19.115-42.667-42.667-42.667s-42.667 19.115-42.667 42.667v42.667h-170.667v-682.667h682.539l0.128 682.667h-170.667z" />
<glyph unicode="&#xe906;" glyph-name="ban" d="M512-64c-282.325 0-512 229.675-512 512s229.675 512 512 512c282.325 0 512-229.675 512-512s-229.675-512-512-512zM85.333 448c0-235.264 191.403-426.667 426.667-426.667 102.315 0 196.267 36.267 269.867 96.512l-600.021 599.979c-60.245-73.557-96.512-167.509-96.512-269.824zM512 874.667c-102.272 0-196.224-36.267-269.824-96.512l600.021-599.979c60.203 73.6 96.469 167.509 96.469 269.824 0 235.264-191.403 426.667-426.667 426.667z" />
<glyph unicode="&#xe907;" glyph-name="bar-chart" d="M960-64h-213.333c-23.595 0-42.667 19.115-42.667 42.667v938.667c0 23.552 19.072 42.667 42.667 42.667h213.333c23.595 0 42.667-19.115 42.667-42.667v-938.667c0-23.552-19.072-42.667-42.667-42.667zM917.333 874.667h-128v-853.333h128v853.333zM618.667-64h-213.333c-23.552 0-42.667 19.115-42.667 42.667v426.667c0 23.552 19.115 42.667 42.667 42.667h213.333c23.595 0 42.667-19.115 42.667-42.667v-426.667c0-23.552-19.072-42.667-42.667-42.667zM576 362.667h-128v-341.333h128v341.333zM277.333-64h-213.333c-23.552 0-42.667 19.115-42.667 42.667v640c0 23.552 19.115 42.667 42.667 42.667h213.333c23.552 0 42.667-19.115 42.667-42.667v-640c0-23.552-19.115-42.667-42.667-42.667zM234.667 576h-128v-554.667h128v554.667z" />
<glyph unicode="&#xe908;" glyph-name="basket" horiz-adv-x="1023" d="M1020.117 606.336l-128.597-426.667c-5.419-18.005-21.931-30.336-40.747-30.336h-398.592c0 0 0 0 0 0s-0.043 0-0.043 0c-5.291 0-10.325 1.195-15.104 3.072-1.664 0.64-3.072 1.621-4.651 2.432-2.901 1.579-5.632 3.328-8.149 5.504-1.451 1.323-2.731 2.731-4.011 4.224-2.048 2.347-3.712 4.907-5.205 7.765-0.981 1.835-1.877 3.584-2.56 5.547-0.384 1.024-1.067 1.835-1.365 2.901l-174.464 642.987c-7.253 26.667-38.869 50.901-66.432 50.901h-127.744c-23.552 0-42.581 19.072-42.581 42.667s19.029 42.667 42.581 42.667h127.744c66.048 0 131.328-50.005 148.608-113.877l50.133-184.789h610.432c13.483 0 26.155-6.357 34.176-17.195 8.021-10.88 10.496-24.875 6.571-37.803zM392.107 576l92.629-341.333h334.421l102.869 341.333h-529.92zM510.933 106.667c46.976 0 85.163-38.315 85.163-85.333s-38.187-85.333-85.163-85.333c-46.976 0-85.205 38.315-85.205 85.333s38.229 85.333 85.205 85.333zM809.003 106.667c46.976 0 85.205-38.315 85.205-85.333s-38.229-85.333-85.205-85.333c-46.933 0-85.163 38.315-85.163 85.333s38.229 85.333 85.163 85.333z" />
<glyph unicode="&#xe909;" glyph-name="basket-loaded" horiz-adv-x="1023" d="M1020.075 606.336l-128.597-426.667c-5.419-18.005-21.973-30.336-40.747-30.336h-398.592c0 0 0 0-0.043 0 0 0 0 0 0 0-5.291 0-10.325 1.195-15.104 3.072-1.707 0.64-3.072 1.621-4.651 2.432-2.944 1.579-5.675 3.328-8.149 5.504-1.493 1.323-2.731 2.731-4.011 4.224-2.048 2.347-3.712 4.907-5.248 7.765-0.939 1.835-1.835 3.584-2.56 5.547-0.341 1.024-1.024 1.835-1.323 2.901l-174.464 642.987c-7.253 26.667-38.912 50.901-66.432 50.901h-127.744c-23.552 0-42.581 19.072-42.581 42.667s19.029 42.667 42.581 42.667h127.744c66.048 0 131.285-50.005 148.608-113.877l50.133-184.789h81.749l200.448 200.832c16.64 16.683 43.563 16.683 60.203 0l200.491-200.832h67.541c13.44 0 26.155-6.357 34.176-17.195 8.021-10.88 10.453-24.875 6.571-37.803zM681.216 771.669l-110.123-110.336h220.245l-110.123 110.336zM468.267 576c0 0 0 0 0 0h-76.203l92.629-341.333h334.421l102.827 341.333h-453.675zM510.891 106.667c46.976 0 85.12-38.315 85.12-85.333s-38.144-85.333-85.12-85.333c-46.976 0-85.205 38.315-85.205 85.333s38.229 85.333 85.205 85.333zM808.96 106.667c46.976 0 85.163-38.315 85.163-85.333s-38.187-85.333-85.163-85.333c-46.933 0-85.163 38.315-85.163 85.333s38.229 85.333 85.163 85.333z" />
<glyph unicode="&#xe90a;" glyph-name="bell" d="M922.965 138.112c-12.288-19.968-34.304-31.445-60.416-31.445h-184.448c0-94.123-76.075-170.667-169.6-170.667-93.483 0-169.515 76.544-169.515 170.667h-184.363c-26.112 0-48.128 11.477-60.416 31.445-12.245 20.011-12.587 44.971-0.939 68.48l118.656 210.005v244.736c0 164.693 133.077 298.667 296.576 298.667 163.627 0 296.704-133.973 296.704-298.667v-244.693l117.589-208.043c12.757-25.515 12.416-50.475 0.171-70.485zM508.501 21.333c46.763 0 84.821 38.272 84.821 85.333h-169.6c0-47.061 38.059-85.333 84.779-85.333zM726.016 384.213c-0.427 0.768-0.384 1.579-0.768 2.347-1.28 2.517-1.92 5.248-2.645 8.064s-1.493 5.504-1.664 8.32c-0.043 0.853-0.469 1.536-0.469 2.389v256c0 117.632-95.104 213.333-211.968 213.333-116.779 0-211.797-95.701-211.797-213.333v-256c0-0.853-0.427-1.536-0.512-2.389-0.128-2.816-0.896-5.504-1.664-8.32-0.725-2.816-1.365-5.547-2.645-8.107-0.341-0.725-0.341-1.536-0.725-2.304l-108.629-192.213h652.16l-108.672 192.213z" />
<glyph unicode="&#xe90b;" glyph-name="briefcase" d="M938.667-42.667h-853.333c-47.061 0-85.333 38.272-85.333 85.333v640c0 47.061 38.272 85.333 85.333 85.333h213.333v42.667c0 70.571 57.429 128 128 128h170.667c70.571 0 128-57.429 128-128v-42.667h213.333c47.061 0 85.333-38.272 85.333-85.333v-640c0-47.061-38.272-85.333-85.333-85.333zM85.333 42.667h853.205l0.085 341.333h-298.624c0-70.571-57.429-128-128-128-33.792 0-65.835 13.312-90.24 37.547-24.405 24.448-37.76 56.533-37.76 90.453h-298.667v-341.333zM469.333 384c0-11.179 4.48-21.845 12.672-30.037 8.021-7.979 19.029-12.629 29.995-12.629 23.509 0 42.667 19.157 42.667 42.667v85.333c0 11.179-4.523 21.845-12.672 30.037-8.021 7.979-19.029 12.629-29.995 12.629-23.509 0-42.667-19.157-42.667-42.667v-85.333zM640 810.667c0 23.509-19.157 42.667-42.667 42.667h-170.667c-23.509 0-42.667-19.157-42.667-42.667v-42.667h256v42.667zM85.333 682.667v-213.333h298.667c0 70.571 57.429 128 128 128 33.792 0 65.835-13.355 90.24-37.547 24.405-24.448 37.76-56.533 37.76-90.453h298.624l0.043 213.333h-853.333z" />
<glyph unicode="&#xe90c;" glyph-name="bubble" d="M170.667-21.333c-16.128 0-30.933 9.131-38.144 23.637-7.424 14.805-5.504 32.64 4.779 45.611 0.683 0.896 61.312 78.037 73.301 158.805-106.24 53.163-210.603 165.589-210.603 306.944 0 222.592 229.675 403.669 512 403.669s512-181.077 512-403.669c0-224.427-229.675-406.997-512-406.997h-61.227c-83.499-121.387-270.592-127.744-278.997-128-0.341 0-0.725 0-1.109 0zM512 832c-235.264 0-426.667-142.805-426.667-318.336 0-109.355 93.483-203.861 185.813-240.683 16.213-6.485 26.837-22.187 26.837-39.637 0-56.619-20.139-112-41.813-155.136 49.28 13.525 106.325 39.851 132.565 90.709 7.339 14.165 21.973 23.083 37.931 23.083h85.333c235.264 0 426.667 144.299 426.667 321.664 0 175.531-191.403 318.336-426.667 318.336z" />
<glyph unicode="&#xe90d;" glyph-name="bubbles" d="M874.709 148.608c10.709-63.403 45.056-90.88 46.677-92.117 13.739-10.539 20.053-28.501 15.531-45.141-4.48-16.683-18.347-29.227-35.499-31.403-1.451-0.171-10.795-1.323-25.387-1.323-43.819 0-134.955 10.923-203.733 86.229h-53.717c-77.227 0-150.272 16.341-211.2 47.232-21.035 10.667-29.44 36.309-18.773 57.301 10.581 20.992 36.395 29.397 57.344 18.731 49.067-24.875 108.8-38.016 172.715-38.016h72.491c0.981 0 1.792-0.469 2.731-0.555 2.987-0.171 5.717-0.939 8.576-1.707 2.603-0.725 5.12-1.365 7.509-2.56 2.304-1.109 4.267-2.731 6.357-4.267 2.389-1.835 4.693-3.584 6.699-5.888 0.597-0.725 1.493-1.067 2.048-1.792 24.107-31.531 54.357-48.981 82.347-58.496-9.984 23.765-17.536 53.035-20.139 87.552-0.085 0.555-0.171 1.067-0.256 1.621-0.043 0.939-0.299 1.707-0.341 2.645-0.128 2.048 0.64 3.84 0.811 5.845 0.213 3.029 0.341 5.973 1.195 8.875 0.811 2.688 2.176 4.992 3.456 7.424 1.28 2.389 2.347 4.736 4.053 6.869 1.92 2.389 4.309 4.181 6.699 6.101 1.536 1.237 2.56 2.901 4.309 3.968 49.067 29.611 131.456 94.976 131.456 200.107 0 51.541-28.203 108.501-67.029 135.552-19.328 13.44-24.149 40.021-10.624 59.307 13.44 19.371 40.021 24.107 59.349 10.667 61.995-43.136 103.637-125.696 103.637-205.525 0-99.285-54.4-191.531-149.291-257.237zM405.333 235.349h-53.632c-68.779-75.264-159.915-86.229-203.776-86.229-14.592 0-23.893 1.152-25.344 1.323-17.408 2.219-31.659 14.891-35.968 31.872-4.267 16.981 2.261 34.859 16.512 45.056 1.152 0.896 35.456 28.331 46.123 91.733-94.891 65.664-149.248 157.909-149.248 257.28 0 188.032 181.845 340.992 405.333 340.992s405.333-152.96 405.333-340.992c0-188.032-181.845-341.035-405.333-341.035zM405.333 832.128c-176.469 0-320-114.731-320-255.744 0-105.216 82.347-170.539 131.371-200.149 1.749-1.024 2.773-2.688 4.309-3.925 2.389-1.963 4.736-3.712 6.656-6.101 1.749-2.176 2.859-4.523 4.096-6.955 1.28-2.432 2.645-4.693 3.413-7.339 0.896-2.944 1.024-5.888 1.28-8.917 0.128-1.963 0.896-3.755 0.811-5.803-0.085-0.939-0.341-1.707-0.384-2.645-0.085-0.555-0.171-1.109-0.256-1.707-2.603-34.475-10.155-63.787-20.096-87.552 27.989 9.515 58.24 27.008 82.389 58.581 0.597 0.725 1.451 1.067 2.091 1.792 1.963 2.304 4.309 4.053 6.741 5.888 2.048 1.536 4.011 3.115 6.272 4.224 2.432 1.237 5.035 1.835 7.68 2.603 2.773 0.768 5.461 1.493 8.32 1.664 0.981 0.085 1.835 0.555 2.816 0.555h72.576c176.427 0 319.915 114.731 319.915 255.787 0 141.013-143.531 255.744-320 255.744z" />
<glyph unicode="&#xe90e;" glyph-name="bulb" d="M694.955 331.008c-6.613-6.272-12.331-32.768-12.373-50.304v-211.669c0-2.261-0.171-4.523-0.555-6.784-7.040-43.648-51.669-126.251-170.069-126.251-118.357 0-163.029 82.56-170.069 126.208-0.384 2.261-0.555 4.523-0.555 6.827v211.712c0 0.427 0.213 0.725 0.213 1.152 0 0.384-0.213 0.725-0.213 1.109-0.171 17.067-5.547 40.917-13.013 48.512-102.997 75.819-157.653 174.891-157.653 287.061 0 188.245 153.088 341.419 341.291 341.419 188.245 0 341.376-153.173 341.376-341.419 0-112.384-54.912-211.669-158.379-287.573zM511.957 21.333c67.584 0 82.56 41.173 85.291 52.011v87.211c-27.819-7.723-54.955-11.264-80.128-11.264-34.603 0-65.408 5.675-90.453 12.544v-88.32c3.285-12.459 18.987-52.181 85.291-52.181zM511.957 874.667c-141.141 0-255.957-114.859-255.957-256.085 0-107.648 68.821-179.755 126.592-221.269 0.853-0.64 1.28-1.579 2.091-2.261s1.792-0.896 2.56-1.621c37.547-36.096 39.424-98.219 39.424-110.293 0-0.427-0.213-0.768-0.256-1.195 0.043-0.427 0.256-0.768 0.256-1.195v-29.653c33.621-12.544 100.736-28.373 170.581 0.128v29.525c0 0 0 0.043 0 0.043s0 0 0 0c0 12.843 2.048 78.507 40.277 113.408 0.64 0.555 1.451 0.725 2.133 1.237 0.683 0.555 0.981 1.365 1.707 1.877 57.771 41.515 126.635 113.621 126.635 221.269 0 141.227-114.859 256.085-256.043 256.085z" />
<glyph unicode="&#xe90f;" glyph-name="calculator" d="M938.667-64h-853.333c-47.061 0-85.333 38.315-85.333 85.333v853.333c0 47.019 38.272 85.333 85.333 85.333h853.333c47.061 0 85.333-38.315 85.333-85.333v-853.333c0-47.019-38.272-85.333-85.333-85.333zM85.333 874.667v-853.333h853.205l0.128 853.333h-853.333zM768 149.333h-170.667c-23.552 0-42.667 19.072-42.667 42.667s19.115 42.667 42.667 42.667h170.667c23.552 0 42.667-19.072 42.667-42.667s-19.115-42.667-42.667-42.667zM768 277.333h-170.667c-23.552 0-42.667 19.072-42.667 42.667s19.115 42.667 42.667 42.667h170.667c23.552 0 42.667-19.072 42.667-42.667s-19.115-42.667-42.667-42.667zM768 575.957h-170.667c-23.552 0-42.667 19.072-42.667 42.667s19.115 42.667 42.667 42.667h170.667c23.552 0 42.667-19.072 42.667-42.667s-19.115-42.667-42.667-42.667zM456.832 161.835c-8.32-8.32-19.243-12.501-30.165-12.501s-21.845 4.181-30.165 12.501l-55.168 55.168-55.168-55.168c-8.32-8.32-19.243-12.501-30.165-12.501s-21.845 4.181-30.165 12.501c-16.683 16.683-16.683 43.648 0 60.331l55.168 55.168-55.168 55.168c-16.683 16.683-16.683 43.648 0 60.331s43.648 16.683 60.331 0l55.168-55.168 55.168 55.168c16.683 16.683 43.648 16.683 60.331 0s16.683-43.648 0-60.331l-55.168-55.168 55.168-55.168c16.683-16.683 16.683-43.648 0-60.331zM426.667 575.957h-42.667v-42.667c0-23.595-19.115-42.667-42.667-42.667s-42.667 19.072-42.667 42.667v42.667h-42.667c-23.552 0-42.667 19.072-42.667 42.667s19.115 42.667 42.667 42.667h42.667v42.709c0 23.595 19.115 42.667 42.667 42.667s42.667-19.072 42.667-42.667v-42.709h42.667c23.552 0 42.667-19.072 42.667-42.667s-19.115-42.667-42.667-42.667z" />
<glyph unicode="&#xe910;" glyph-name="calendar" d="M938.667-64h-853.333c-47.061 0-85.333 38.272-85.333 85.333v768c0 47.061 38.272 85.333 85.333 85.333h213.333v42.667c0 23.552 19.115 42.667 42.667 42.667s42.667-19.115 42.667-42.667v-42.667h256v42.667c0 23.552 19.115 42.667 42.667 42.667s42.667-19.115 42.667-42.667v-42.667h213.333c47.061 0 85.333-38.272 85.333-85.333v-768c0-47.061-38.272-85.333-85.333-85.333zM725.333 789.333v-42.667c0-23.552-19.115-42.667-42.667-42.667s-42.667 19.115-42.667 42.667v42.667h-256v-42.667c0-23.552-19.115-42.667-42.667-42.667s-42.667 19.115-42.667 42.667v42.667h-213.333v-768h853.205l0.128 768h-213.333zM810.667 192h-85.333c-23.552 0-42.667 19.115-42.667 42.667v85.333c0 23.552 19.115 42.667 42.667 42.667h85.333c23.552 0 42.667-19.115 42.667-42.667v-85.333c0-23.552-19.115-42.667-42.667-42.667zM810.667 448h-85.333c-23.552 0-42.667 19.115-42.667 42.667v85.333c0 23.552 19.115 42.667 42.667 42.667h85.333c23.552 0 42.667-19.115 42.667-42.667v-85.333c0-23.552-19.115-42.667-42.667-42.667zM554.667 192h-85.333c-23.552 0-42.667 19.115-42.667 42.667v85.333c0 23.552 19.115 42.667 42.667 42.667h85.333c23.552 0 42.667-19.115 42.667-42.667v-85.333c0-23.552-19.115-42.667-42.667-42.667zM554.667 448h-85.333c-23.552 0-42.667 19.115-42.667 42.667v85.333c0 23.552 19.115 42.667 42.667 42.667h85.333c23.552 0 42.667-19.115 42.667-42.667v-85.333c0-23.552-19.115-42.667-42.667-42.667zM298.667 192h-85.333c-23.552 0-42.667 19.115-42.667 42.667v85.333c0 23.552 19.115 42.667 42.667 42.667h85.333c23.552 0 42.667-19.115 42.667-42.667v-85.333c0-23.552-19.115-42.667-42.667-42.667zM298.667 448h-85.333c-23.552 0-42.667 19.115-42.667 42.667v85.333c0 23.552 19.115 42.667 42.667 42.667h85.333c23.552 0 42.667-19.115 42.667-42.667v-85.333c0-23.552-19.115-42.667-42.667-42.667z" />
<glyph unicode="&#xe911;" glyph-name="call-end" horiz-adv-x="1008" d="M197.291-64c-10.155 0-20.011 3.755-27.691 10.624l-138.325 123.648c-48.555 49.237-38.528 133.291 26.965 252.587 55.381 100.992 145.195 216.832 252.8 326.144 185.685 188.928 376.192 310.997 485.333 310.997 39.595 0 63.317-15.659 76.203-28.8l124.331-141.952c7.424-8.533 11.221-19.712 10.496-31.104s-5.888-21.973-14.379-29.483l-209.792-184.917c-12.8-11.307-31.147-13.653-46.251-5.931l-140.8 71.595-250.923-255.189 70.4-143.147c7.552-15.403 5.333-33.92-5.76-46.976l-180.821-213.291c-7.339-8.619-17.707-13.909-28.885-14.72-0.981-0.043-1.963-0.085-2.901-0.085zM796.373 874.667c-71.979 0-241.451-98.219-426.027-285.995-102.272-103.936-187.093-213.12-238.848-307.413-56.277-102.528-48.853-142.72-43.733-147.883l105.387-94.208 134.955 159.147-71.424 145.237c-8.064 16.427-4.864 36.267 7.893 49.28l293.675 298.624c12.843 13.056 32.256 16.213 48.427 8.021l142.763-72.576 156.501 137.984-91.776 105.045c-3.968 3.2-9.173 4.736-17.792 4.736z" />
<glyph unicode="&#xe912;" glyph-name="call-in" horiz-adv-x="1037" d="M1024.643 887.481l-271.999-268.572h111.798c23.859 0 43.22-19.061 43.22-42.663s-12.379-40.564-36.238-40.564h-212.116c-3.641-0.942-7.239-2.099-11.008-2.099-11.051 0-22.103 4.155-30.541 12.508-15.42 15.206-16.020 38.637-3.341 55.342v191.256c0 23.602 10.023 39.579 33.882 39.579 23.902 0 43.22-19.061 43.22-42.663v-110.342l271.999 268.529c16.877 16.705 44.248 16.705 61.125 0 16.877-16.663 16.877-43.648 0-60.311zM355.097 541.979l258.506-255.165 145.037 71.576c15.592 7.753 34.31 5.354 47.546-5.868l216.1-183.845c8.738-7.453 14.135-17.99 14.906-29.384 0.814-11.394-3.041-22.574-10.666-31.141l-125.248-140.711c-15.892-15.892-39.965-31.312-80.186-31.312-111.455 0-314.876 126.961-506.132 315.904-208.133 205.477-386.367 471.907-285.791 571.154l143.752 126.319c8.653 7.582 20.004 11.265 31.483 10.709 11.565-0.728 22.317-5.997 29.898-14.607l187.315-213.358c11.437-13.065 13.793-31.655 5.997-47.075l-72.519-143.196zM197.638 857.026l-108.371-95.050c-24.458-24.287 42.021-207.918 286.819-449.633 191.256-188.943 372.017-290.846 445.007-290.846 9.509 0 14.735 1.799 16.32 3.341l95.392 107.3-161.229 137.156-147.136-72.562c-16.705-8.267-36.795-5.012-49.902 7.967l-302.582 298.685c-13.15 12.979-16.448 32.854-8.139 49.26l73.547 145.209-139.726 159.173z" />
<glyph unicode="&#xe913;" glyph-name="call-out" horiz-adv-x="1037" d="M1034.409 933.957c2.185-5.226 3.341-10.751 3.341-16.32v-213.358c0-23.602-19.361-42.663-43.263-42.663-23.859 0-37.394 21.803-37.394 45.405v113.34l-277.781-274.269c-8.481-8.353-19.533-12.508-30.584-12.508s-22.103 4.155-30.541 12.508c-16.877 16.663-16.877 43.648 0 60.311l274.183 270.714-113.982-2.142c-23.859 0-43.22 19.061-43.22 42.663s19.361 42.663 43.22 42.663h216.1c5.654 0 11.265-1.114 16.534-3.255 10.58-4.326 18.976-12.679 23.388-23.088zM355.526 541.979l258.506-255.165 145.037 71.576c15.592 7.753 34.31 5.354 47.546-5.868l216.1-183.845c8.738-7.453 14.093-17.99 14.906-29.384s-3.041-22.574-10.666-31.141l-125.248-140.711c-15.892-15.892-39.965-31.312-80.186-31.312-111.498 0-314.876 126.961-506.132 315.904-208.133 205.477-386.367 471.907-285.834 571.154l143.795 126.319c8.653 7.582 19.961 11.265 31.483 10.709 11.565-0.728 22.317-5.997 29.856-14.607l187.358-213.358c11.437-13.065 13.793-31.655 5.997-47.075l-72.519-143.196zM198.066 857.026l-108.371-95.050c-24.458-24.287 42.021-207.918 286.819-449.59 191.256-188.986 372.017-290.889 445.007-290.889 9.509 0 14.735 1.842 16.32 3.341l95.392 107.3-161.229 137.199-147.179-72.604c-16.663-8.267-36.752-5.012-49.859 8.010l-302.625 298.642c-13.15 12.979-16.406 32.854-8.096 49.26l73.547 145.209-139.726 159.173z" />
<glyph unicode="&#xe914;" glyph-name="check" d="M512-64c-282.325 0-512 229.675-512 512s229.675 512 512 512c282.325 0 512-229.675 512-512s-229.675-512-512-512zM512 874.667c-235.264 0-426.667-191.403-426.667-426.667s191.403-426.667 426.667-426.667c235.264 0 426.667 191.403 426.667 426.667s-191.403 426.667-426.667 426.667zM501.419 249.216c-8.405-9.6-20.224-14.549-32.128-14.549-9.344 0-18.731 3.072-26.581 9.344l-213.333 170.667c-18.432 14.72-21.419 41.557-6.699 59.989 14.72 18.389 41.643 21.333 59.947 6.656l181.461-145.195 271.829 310.656c15.488 17.664 42.453 19.499 60.203 3.968 17.707-15.488 19.499-42.453 3.968-60.203l-298.667-341.333z" />
<glyph unicode="&#xe915;" glyph-name="chemestry" d="M823.040-41.472c-7.381-13.867-21.717-22.528-37.376-22.528h-551.040c-15.659 0-30.037 8.661-37.376 22.528-7.381 13.867-6.571 30.72 2.091 43.819l162.432 245.248v243.072h-42.368c-23.467 0-42.411 19.072-42.411 42.667s18.944 42.667 42.411 42.667h84.779c23.424 0 42.368-19.072 42.368-42.667v-298.667c0-8.405-2.475-16.683-7.125-23.68l-125.611-189.653h392.661l-125.653 189.653c-4.608 6.997-7.125 15.275-7.125 23.68v298.667c0 23.595 18.987 42.667 42.411 42.667h84.779c23.424 0 42.368-19.072 42.368-42.667s-18.944-42.667-42.368-42.667h-42.411v-243.072l162.475-245.248c8.619-13.099 9.472-29.952 2.091-43.819zM658.475 704c-70.101 0-127.147 57.429-127.147 128s57.045 128 127.147 128c70.144 0 127.189-57.429 127.189-128s-57.045-128-127.189-128zM658.475 874.667c-23.381 0-42.368-19.115-42.368-42.667s18.987-42.667 42.368-42.667c23.424 0 42.411 19.115 42.411 42.667s-18.987 42.667-42.411 42.667zM446.549 618.667c-46.72 0-84.779 38.272-84.779 85.333 0 47.019 38.059 85.333 84.779 85.333s84.779-38.315 84.779-85.333c0-47.061-38.059-85.333-84.779-85.333z" />
<glyph unicode="&#xe916;" glyph-name="clock" d="M512-64c-282.325 0-512 229.675-512 512s229.675 512 512 512c282.325 0 512-229.675 512-512s-229.675-512-512-512zM512 874.667c-235.264 0-426.667-191.403-426.667-426.667s191.403-426.667 426.667-426.667c235.264 0 426.667 191.403 426.667 426.667s-191.403 426.667-426.667 426.667zM682.667 234.667c-10.923 0-21.845 4.181-30.165 12.501l-170.667 170.667c-3.925 3.925-7.040 8.619-9.216 13.867-2.133 5.205-3.285 10.752-3.285 16.299v298.667c0 23.552 19.115 42.667 42.667 42.667s42.667-19.115 42.667-42.667v-281.003l158.165-158.165c16.683-16.683 16.683-43.648 0-60.331-8.32-8.32-19.243-12.501-30.165-12.501z" />
<glyph unicode="&#xe917;" glyph-name="close" d="M512-64c-282.325 0-512 229.675-512 512s229.675 512 512 512c282.325 0 512-229.675 512-512s-229.675-512-512-512zM512 874.667c-235.264 0-426.667-191.403-426.667-426.667s191.403-426.667 426.667-426.667c235.264 0 426.667 191.403 426.667 426.667s-191.403 426.667-426.667 426.667zM712.832 247.168c-8.32-8.32-19.243-12.501-30.165-12.501s-21.845 4.181-30.165 12.501l-140.501 140.501-140.501-140.501c-8.32-8.32-19.243-12.501-30.165-12.501s-21.845 4.181-30.165 12.501c-16.683 16.683-16.683 43.648 0 60.331l140.501 140.501-140.501 140.501c-16.683 16.683-16.683 43.648 0 60.331s43.648 16.683 60.331 0l140.501-140.501 140.501 140.501c16.683 16.683 43.648 16.683 60.331 0s16.683-43.648 0-60.331l-140.501-140.501 140.501-140.501c16.683-16.683 16.683-43.648 0-60.331z" />
<glyph unicode="&#xe918;" glyph-name="compass" d="M512-64c-282.325 0-512 229.675-512 512s229.675 512 512 512c282.325 0 512-229.675 512-512s-229.675-512-512-512zM512 874.667c-235.264 0-426.667-191.403-426.667-426.667s191.403-426.667 426.667-426.667c235.264 0 426.667 191.403 426.667 426.667s-191.403 426.667-426.667 426.667zM636.885 346.667c0-0.043-0.043-0.085-0.043-0.085l-0.299-0.725c-4.309-10.069-12.331-18.091-22.4-22.4l-0.725-0.299c0 0-0.043-0.043-0.085-0.043l-297.856-127.659c-5.419-2.347-11.136-3.456-16.811-3.456-11.093 0-22.016 4.352-30.165 12.501-12.331 12.331-15.915 30.933-9.045 46.976l127.659 297.856c0 0.043 0.043 0.085 0.043 0.085l0.299 0.725c4.309 10.069 12.331 18.091 22.4 22.4l0.725 0.299c0 0 0.043 0.043 0.085 0.043l297.856 127.659c16 6.869 34.645 3.328 46.976-9.045 12.331-12.331 15.915-30.933 9.045-46.976l-127.659-297.856zM522.624 377.045l-81.579 81.579-61.141-142.72 142.72 61.141zM501.376 518.955l81.579-81.579 61.141 142.72-142.72-61.141z" />
<glyph unicode="&#xe919;" glyph-name="config" d="M938.667 541.184v-562.517c0-23.595-19.072-42.667-42.667-42.667s-42.667 19.072-42.667 42.667v562.517c-49.536 17.664-85.333 64.597-85.333 120.149s35.797 102.485 85.333 120.149v135.851c0 23.595 19.072 42.667 42.667 42.667s42.667-19.072 42.667-42.667v-135.851c49.536-17.664 85.333-64.597 85.333-120.149s-35.797-102.485-85.333-120.149zM896 704c-23.552 0-42.667-19.115-42.667-42.667s19.115-42.667 42.667-42.667c23.552 0 42.667 19.115 42.667 42.667s-19.115 42.667-42.667 42.667zM554.667 114.517v-135.851c0-23.595-19.072-42.667-42.667-42.667s-42.667 19.072-42.667 42.667v135.851c-49.536 17.664-85.333 64.597-85.333 120.149s35.797 102.485 85.333 120.149v562.517c0 23.595 19.072 42.667 42.667 42.667s42.667-19.072 42.667-42.667v-562.517c49.536-17.664 85.333-64.597 85.333-120.149s-35.797-102.485-85.333-120.149zM512 277.333c-23.552 0-42.667-19.115-42.667-42.667s19.115-42.667 42.667-42.667c23.552 0 42.667 19.115 42.667 42.667s-19.115 42.667-42.667 42.667zM170.667 327.851v-349.184c0-23.595-19.072-42.667-42.667-42.667s-42.667 19.072-42.667 42.667v349.184c-49.536 17.664-85.333 64.597-85.333 120.149s35.797 102.485 85.333 120.149v349.184c0 23.595 19.072 42.667 42.667 42.667s42.667-19.072 42.667-42.667v-349.184c49.536-17.664 85.333-64.597 85.333-120.149s-35.797-102.485-85.333-120.149zM128 490.667c-23.552 0-42.667-19.115-42.667-42.667s19.115-42.667 42.667-42.667c23.552 0 42.667 19.115 42.667 42.667s-19.115 42.667-42.667 42.667z" />
<glyph unicode="&#xe91a;" glyph-name="controller" horiz-adv-x="1025" d="M994.466 492.582l-48.419-48.462c-32.94-32.984-93.001-54.93-139.393-50.834l-121.587 10.477-124.432-124.432 24.792-88.603c13.409-47.686-2.975-110.118-38.071-145.214l-79.376-79.419c-19.661-19.704-46.005-30.569-73.987-30.569h-0.043c-28.025 0-54.283 10.822-74.030 30.526l-289.652 289.695c-40.744 40.831-40.744 107.186 0 147.973l526.573 526.53c40.788 40.788 107.229 40.831 148.017 0l289.609-289.609c19.747-19.747 30.612-46.005 30.612-74.030s-10.865-54.283-30.612-74.030zM934.060 580.236l-289.609 289.566c-4.829 4.829-10.606 5.562-13.581 5.562-3.018 0-8.796-0.733-13.625-5.562l-526.53-526.444c-7.373-7.373-7.373-19.833 0-27.249l289.652-289.652c4.786-4.786 10.563-5.519 13.581-5.519 2.975 0 8.753 0.733 13.581 5.562l79.419 79.419c13.193 13.237 21.256 43.806 16.212 61.742l-29.965 107.229c-0.431 1.035-0.517 2.070-0.862 3.061l-1.078 3.794c-0.259 0.905 0 1.768-0.172 2.63-0.604 3.492-1.035 6.855-0.776 10.391 0.129 4.053 0.992 7.761 2.242 11.555 0.216 0.604 0.345 1.207 0.604 1.811 3.061 8.063 8.149 14.961 15.392 19.919l144.352 144.309c7.33 10.563 18.885 17.203 32.251 17.721 1.725 0.172 3.406 0.604 5.174 0.561 0.216-0.043 0.431 0.086 0.69 0.043l142.972-12.288c21.385-1.682 56.352 10.865 71.615 26.128l48.462 48.505c4.829 4.829 5.562 10.606 5.562 13.581 0 3.018-0.733 8.753-5.562 13.625zM640.571 619.040h85.455v-85.455h-85.455v85.455zM640.571 747.224h85.455v-85.455h-85.455v85.455zM512.388 619.040h85.455v-85.455h-85.455v85.455zM512.388 747.224h85.455v-85.455h-85.455v85.455zM414.429 247.037c-8.321-8.321-19.273-12.504-30.181-12.504-10.951 0-21.86 4.182-30.224 12.504l-33.889 33.889-33.889-33.889c-8.321-8.321-19.273-12.504-30.181-12.504-10.951 0-21.86 4.182-30.224 12.504-16.686 16.686-16.686 43.763 0 60.448l33.889 33.846-33.889 33.889c-16.686 16.686-16.686 43.719 0 60.405s43.719 16.686 60.405 0l33.889-33.889 33.889 33.889c16.686 16.686 43.719 16.686 60.405 0s16.686-43.719 0-60.405l-33.889-33.889 33.889-33.846c16.686-16.686 16.686-43.763 0-60.448z" />
<glyph unicode="&#xe91b;" glyph-name="credit-card" d="M896 106.667h-768c-70.571 0-128 57.429-128 128v426.667c0 70.571 57.429 128 128 128h768c70.571 0 128-57.429 128-128v-426.667c0-70.571-57.429-128-128-128zM128 192h768c23.552 0 42.667 19.115 42.667 42.667v256h-853.333v-256c0-23.552 19.157-42.667 42.667-42.667zM938.667 661.333c0 23.552-19.115 42.667-42.667 42.667h-768c-23.509 0-42.667-19.115-42.667-42.667v-42.667h853.333v42.667z" />
<glyph unicode="&#xe91c;" glyph-name="crop" d="M896 149.333h85.333c23.552 0 42.667-19.072 42.667-42.667 0-23.552-19.115-42.667-42.667-42.667h-85.333v-85.333c0-23.595-19.115-42.667-42.667-42.667s-42.667 19.072-42.667 42.667v85.333h-597.333c-47.061 0-85.333 38.315-85.333 85.333v597.333h-85.333c-23.552 0-42.667 19.072-42.667 42.667 0 23.552 19.115 42.667 42.667 42.667h85.333v85.333c0 23.595 19.115 42.667 42.667 42.667s42.667-19.072 42.667-42.667v-85.333h597.333c7.595 0 14.805-1.323 21.845-3.2l75.989 76.032c16.683 16.683 43.648 16.683 60.331 0s16.683-43.691 0-60.331l-76.032-76.032c1.877-6.997 3.2-14.251 3.2-21.803v-597.333zM213.333 746.667v-537.131l537.003 537.131h-537.003zM273.835 149.333h536.832v536.96l-536.832-536.96z" />
<glyph unicode="&#xe91d;" glyph-name="cup" d="M843.264 623.104c-33.195-135.68-147.669-238.933-288.597-256.768v-217.003h85.333c23.595 0 42.667-19.072 42.667-42.667s-19.072-42.667-42.667-42.667h-256c-23.595 0-42.667 19.072-42.667 42.667s19.072 42.667 42.667 42.667h85.333v217.003c-140.928 17.835-255.403 121.088-288.597 256.768-105.216 21.461-180.736 141.867-180.736 251.563 0 23.595 19.072 42.667 42.667 42.667h128c0 23.595 19.072 42.667 42.667 42.667h597.333c23.595 0 42.667-19.072 42.667-42.667h128c23.595 0 42.667-19.072 42.667-42.667 0-109.696-75.52-230.101-180.736-251.563zM170.667 832h-79.829c11.904-47.872 42.197-94.464 79.829-115.797v115.797zM768 874.667h-512v-170.667c0-141.184 114.816-256 256-256s256 114.816 256 256v170.667zM853.333 832v-115.797c37.632 21.333 67.925 67.925 79.829 115.797h-79.829zM298.667 21.333h426.667c23.595 0 42.667-19.072 42.667-42.667s-19.072-42.667-42.667-42.667h-426.667c-23.595 0-42.667 19.072-42.667 42.667s19.072 42.667 42.667 42.667z" />
<glyph unicode="&#xe91e;" glyph-name="cup2" d="M810.667 106.667h-46.976c-19.84-97.237-106.027-170.667-209.024-170.667h-341.333c-117.632 0-213.333 95.701-213.333 213.333v426.667c0 47.019 38.272 85.333 85.333 85.333h597.333c47.061 0 85.333-38.315 85.333-85.333v-42.667h42.667c117.632 0 213.333-95.701 213.333-213.333s-95.701-213.333-213.333-213.333zM682.667 466.347v109.653h-597.333v-426.667c0-70.571 57.429-128 128-128h341.333c70.571 0 128 57.429 128 128v317.013zM810.667 448h-42.667v-256h42.667c70.571 0 128 57.429 128 128s-57.429 128-128 128zM597.333 704c-23.552 0-42.667 19.072-42.667 42.667v170.667c0 23.595 19.115 42.667 42.667 42.667s42.667-19.072 42.667-42.667v-170.667c0-23.595-19.115-42.667-42.667-42.667zM384 704c-23.552 0-42.667 19.072-42.667 42.667v170.667c0 23.595 19.115 42.667 42.667 42.667s42.667-19.072 42.667-42.667v-170.667c0-23.595-19.115-42.667-42.667-42.667zM170.667 704c-23.552 0-42.667 19.072-42.667 42.667v170.667c0 23.595 19.115 42.667 42.667 42.667s42.667-19.072 42.667-42.667v-170.667c0-23.595-19.115-42.667-42.667-42.667z" />
<glyph unicode="&#xe91f;" glyph-name="cursor" d="M554.435-63.872c-1.583 0-3.208 0.086-4.834 0.257-18.394 2.139-33.323 15.828-36.917 34.008l-80.207 401.378-401.635 120.546c-17.282 5.219-29.473 20.747-30.329 38.799s9.753 34.692 26.436 41.537l937.505 383.84c16.17 6.545 34.735 2.695 46.841-9.924 12.106-12.576 15.314-31.313 8.085-47.226l-426.146-938.232c-6.93-15.314-22.201-24.982-38.799-24.982zM170.766 539.372l310.691-93.297c15.1-4.534 26.479-17.025 29.559-32.468l59.289-296.831 327.074 720.111-726.613-297.515z" />
<glyph unicode="&#xe920;" glyph-name="diamond" horiz-adv-x="1020" d="M1019.477 614.229c-0.085-4.608-0.853-9.216-2.432-13.568-0.725-2.005-1.877-3.627-2.859-5.419-0.939-1.707-1.536-3.499-2.731-5.12l-466.859-636.416c0 0-0.043-0.043-0.043-0.043l-0.085-0.171c-0.085-0.085-0.213-0.085-0.256-0.171-3.499-4.693-8.064-8.235-13.099-11.136-1.28-0.725-2.475-1.323-3.797-1.92-5.333-2.389-11.008-4.096-17.109-4.096s-11.776 1.707-17.109 4.096c-1.365 0.597-2.517 1.195-3.797 1.92-5.035 2.901-9.6 6.443-13.099 11.136-0.085 0.085-0.171 0.085-0.256 0.171l-0.085 0.171c-0.043 0-0.043 0.043-0.043 0.043l-466.859 636.416c-1.579 2.133-2.517 4.48-3.627 6.784-0.555 1.152-1.28 2.133-1.749 3.328-1.707 4.523-2.56 9.259-2.688 14.037 0 0.341-0.171 0.597-0.171 0.981 0 0.981 0.469 1.877 0.512 2.901 0.256 3.243 0.725 6.4 1.707 9.557 1.92 7.339 4.992 14.208 9.771 19.755l163.456 285.909c7.509 13.227 20.608 26.624 35.84 26.624h597.333c15.232 0 27.349-13.397 34.901-26.624l163.029-285.184c5.12-5.803 8.448-13.056 10.368-20.949 0.853-2.901 1.28-5.803 1.493-8.789 0.085-1.109 0.555-2.133 0.555-3.2 0-0.384-0.171-0.683-0.213-1.024zM895.787 576h-150.869l-115.669-363.307 266.539 363.307zM510.208 836.992l-119.765-175.659h239.573l-119.808 175.659zM510.208 118.571l145.579 457.429h-291.157l145.579-457.429zM391.125 212.693l-115.627 363.307h-150.869l266.496-363.307zM205.44 796.16l-84.608-134.827h127.488l-42.88 134.827zM269.568 874.667l52.053-163.541 111.531 163.541h-163.584zM587.264 874.667l111.531-163.499 52.053 163.499h-163.584zM827.392 835.2l-55.339-173.867h134.869l-79.531 173.867z" />
<glyph unicode="&#xe921;" glyph-name="direction" d="M962.261 583.168l-253.611-168.832c-3.883-2.859-8.064-5.077-12.8-6.528-2.816-0.981-5.717-1.408-8.619-1.749-1.237-0.128-2.347-0.725-3.627-0.725h-170.88v-426.667c0-23.595-19.115-42.667-42.752-42.667-23.595 0-42.709 19.072-42.709 42.667v426.667h-341.376c-23.637 0-43.179 19.499-43.179 43.093v340.48c0 23.595 19.541 43.093 43.179 43.093h341.376v85.333c0 23.595 19.115 42.667 42.709 42.667 23.637 0 42.752-19.072 42.752-42.667v-85.333h170.88c1.323 0 2.475-0.64 3.755-0.768 1.92-0.213 3.712-0.597 5.547-1.109 5.76-1.323 10.88-3.584 15.445-6.912l253.909-169.045c11.861-7.936 19.029-21.248 19.029-35.499s-7.168-27.605-19.029-35.499zM669.269 746.667h-541.099v-256h541.099l192.256 128-192.256 128z" />
<glyph unicode="&#xe922;" glyph-name="directions" d="M1008.683 692.523l-128-106.667c-2.091-1.664-4.48-2.517-6.699-3.797-1.749-0.981-3.285-2.219-5.163-2.944-5.035-1.963-10.197-3.115-15.445-3.115 0 0 0 0 0 0-0.043 0-0.043 0-0.043 0h-298.667v-42.667h255.573c23.595 0 43.093-19.499 43.093-43.093v-212.48c0-23.595-19.499-43.093-43.093-43.093h-255.573v-256c0-23.595-19.072-42.667-42.667-42.667s-42.667 19.072-42.667 42.667v256h-298.667c0 0 0 0-0.043 0 0 0 0 0 0 0-5.248 0-10.411 1.152-15.445 3.115-1.877 0.725-3.413 1.963-5.163 2.944-2.219 1.28-4.608 2.133-6.699 3.797l-128 106.667c-9.685 8.149-15.317 20.139-15.317 32.811s5.632 24.661 15.317 32.811l128 106.667c1.579 1.28 3.499 1.749 5.205 2.773 2.517 1.579 4.907 3.157 7.765 4.181s5.717 1.365 8.661 1.749c1.963 0.256 3.712 1.152 5.717 1.152h298.667v42.667h-255.573c-23.595 0-43.093 19.499-43.093 43.093v212.48c0 23.595 19.499 43.093 43.093 43.093h255.573v42.667c0 23.595 19.072 42.667 42.667 42.667s42.667-19.072 42.667-42.667v-42.667h298.667c2.005 0 3.669-0.853 5.589-1.109 3.029-0.427 5.931-0.768 8.832-1.792 2.816-1.024 5.205-2.603 7.723-4.181 1.707-1.024 3.627-1.493 5.205-2.773l128-106.667c9.685-8.149 15.317-20.139 15.317-32.811s-5.632-24.661-15.317-32.811zM186.155 448l-76.843-64 76.843-64h581.845v128h-581.845zM837.845 789.333h-581.845v-128h581.845l76.843 64-76.843 64z" />
<glyph unicode="&#xe923;" glyph-name="disc" d="M974.037 227.328c-38.443-80.725-98.261-150.613-172.971-201.813-0.043-0.043-0.085-0.085-0.085-0.085-0.128-0.085-0.299-0.128-0.384-0.213-85.291-58.325-185.045-89.216-288.597-89.216-282.325 0-512 229.675-512 512 0 169.429 83.797 327.765 224.213 423.509 85.248 57.899 184.747 88.491 287.787 88.491 282.325 0 512-229.675 512-512 0-77.483-16.811-151.723-49.963-220.672zM876.587 226.731l-239.488 114.56 149.376-218.965c35.541 29.952 66.048 65.152 90.112 104.405zM469.333 448c0-23.552 19.157-42.667 42.667-42.667s42.667 19.115 42.667 42.667c0 23.552-19.157 42.667-42.667 42.667s-42.667-19.115-42.667-42.667zM111.275 592.981c-16.725-45.867-25.941-94.763-25.941-144.981 0-235.264 191.403-426.667 426.667-426.667 72.064 0 141.44 18.859 203.904 53.077l-170.88 250.453c-10.624-2.859-21.547-4.864-33.024-4.864-70.571 0-128 57.429-128 128 0 4.736 0.896 9.216 1.408 13.824l-274.133 131.157zM148.139 669.995l240.341-115.029-149.973 219.861c-35.925-30.165-66.304-65.621-90.368-104.832zM512 874.667c-71.467 0-140.416-18.603-202.624-52.309l171.093-250.752c10.155 2.603 20.608 4.395 31.531 4.395 70.571 0 128-57.429 128-128 0-4.395-0.853-8.576-1.28-12.843l274.731-131.413c16.597 45.952 25.216 94.251 25.216 144.256 0 235.264-191.403 426.667-426.667 426.667z" />
<glyph unicode="&#xe924;" glyph-name="dislike" d="M480.571-64c-52.106 0-115.751 41.039-123.668 156.672-4.805 70.183 10.319 148.047 22.804 197.908h-140.406c-101.061 0-161.477 64.276-161.477 126.385 0 21.662 3.19 39.306 8.428 53.681-27.215 19.338-46.868 50.924-46.868 95.586 0 47.458 21.228 78.572 48.167 96.965-5.238 13.706-8.35 30.366-8.113 50.334 0.512 43.993 21.504 72.625 46.789 90.23-3.742 10.476-5.947 22.686-5.947 36.864 0 119.375 162.777 119.375 216.261 119.375h134.42c69.159 0 125.519-24.93 175.222-46.986 38.518-17.054 71.759-31.744 102.951-31.744h152.734c12.012 0 23.316-5.474 30.838-14.848 5.278-6.656 51.909-69.553 51.909-221.42 0-148.677-40.527-247.375-42.26-251.471-5.514-13.154-17.723-22.292-31.862-23.906-1.536-0.197-154.86-18.747-229.022-93.263-70.932-71.207-117.878-170.811-132.293-280.458-4.254-32.492-29.026-56.99-60.219-59.589-2.757-0.197-5.553-0.315-8.389-0.315zM161.91 447.409c-1.654-2.678-5.317-10.831-5.317-30.444 0-16.108 24.97-47.616 82.708-47.616h192.433c12.642 0 24.497-6.065 31.941-16.345 7.365-10.24 9.413-23.434 5.435-35.407-0.394-1.26-40.212-123.038-33.595-219.569 3.545-52.578 20.716-76.17 36.982-81.881 18.117 122.762 72.271 234.575 153.127 315.786 73.964 74.24 198.144 102.951 251.077 112.167 10.516 33.359 29.145 105.826 29.145 200.901 0 84.874-16.502 134.577-26.939 157.499h-129.772c-47.813 0-92.042 19.574-134.814 38.518-44.662 19.771-90.86 40.251-143.36 40.251h-134.42c-62.74 0-137.492-7.050-137.492-40.645 0-5.632 1.024-12.564 4.017-13.588 0.197 0 0.354 0 0.551 0 20.795 0 33.753-15.872 34.895-36.864 1.142-21.071-19.062-38.873-40.094-40.802-9.019-1.063-39.897-6.892-40.212-36.746-0.236-20.638 5.553-27.569 7.838-28.475 20.322-3.033 33.359-20.795 31.98-41.314s-19.85-36.155-40.409-36.391c-17.723-0.63-39.463-8.192-39.463-40.212 0-31.862 22.567-39.463 41.511-40.172 21.504-0.866 38.715-18.865 38.164-40.369-0.473-20.322-16.030-36.746-35.919-38.282z" />
<glyph unicode="&#xe925;" glyph-name="document" d="M896.043 619.221c0-1.493-0.725-2.773-0.853-4.224v-591.275c0-46.933-38.229-85.077-85.248-85.077h-596.736c-47.019 0-85.248 38.144-85.248 85.077v850.773c0 46.891 38.229 85.077 85.248 85.077h340.992c1.92 0 3.541-0.853 5.419-1.109 1.92-0.256 3.627-0.597 5.504-1.109 7.253-1.963 14.037-5.12 19.2-10.283l293.717-293.163c1.365-0.939 2.005-2.56 3.243-3.669 1.28-1.152 2.219-2.475 3.328-3.797 6.571-7.467 11.435-16.512 11.435-27.221zM213.205 23.723h596.736v554.923h-255.275c-23.552 0-43.093 17.067-43.093 40.576v258.091h-298.24l-0.128-853.589zM596.821 814.293v-152.533h152.832l-152.832 152.533z" />
<glyph unicode="&#xe926;" glyph-name="documents" horiz-adv-x="1027" d="M1025.839 657.009v-507.637c0-47.055-38.371-85.298-85.469-85.298h-170.98c-23.656 0-42.777 19.079-42.777 42.649s19.121 42.649 42.777 42.649h170.98v511.786c0 0.727 0.342 1.326 0.385 2.053h-213.544c-23.613 0-43.333-25.624-43.333-2.053v215.939h-298.884c-23.613 0-43.077 16.384-43.077 39.954s19.121 42.649 42.734 42.649h341.961c0.984 0 1.754-0.513 2.695-0.556 3.85-0.257 7.572-0.984 11.208-2.267 1.369-0.471 2.781-0.813 4.107-1.454 4.32-2.011 8.384-4.534 11.935-7.999 0.086-0.128 0.257-0.171 0.342-0.299l251.786-251.145c1.369-0.984 2.011-2.609 3.251-3.764 1.241-1.112 2.182-2.438 3.294-3.722 6.588-7.529 11.464-16.598 11.464-27.335 0-1.497-0.727-2.695-0.856-4.149zM769.39 814.087v-110.28h110.536l-110.536 110.28zM387.133 831.241c3.978-0.214 7.828-0.984 11.55-2.31 1.326-0.471 2.652-0.813 3.936-1.412 4.32-2.011 8.427-4.577 11.978-8.042 0.086-0.128 0.257-0.171 0.342-0.299l251.786-251.145c1.369-0.984 2.011-2.652 3.251-3.764s2.182-2.438 3.294-3.722c6.588-7.529 11.464-16.555 11.464-27.335 0-1.497-0.727-2.738-0.856-4.149v-507.637c0-47.055-38.371-85.298-85.469-85.298h-512.941c-47.14 0-85.512 38.243-85.512 85.298v725.030c0 47.012 38.371 85.298 85.512 85.298h299.184c0.898 0 1.626-0.471 2.481-0.513zM427.43 686.141v-110.28h110.493l-110.493 110.28zM341.918 533.212v215.554h-256.364l-0.086-727.34h512.941v470.677h-213.415c-23.613 0-43.077 17.539-43.077 41.109z" />
<glyph unicode="&#xe927;" glyph-name="download" d="M794.667 128h-112.043c-23.595 0-42.667 19.115-42.667 42.667s19.072 42.667 42.667 42.667h112.043c71.552 0 144 55.936 144 162.901 0 113.365-93.184 205.611-207.659 205.611-3.755 0-7.509-0.256-11.221-0.64-19.328-2.432-38.315 9.429-44.928 28.16-33.536 94.891-124.16 158.635-225.451 158.635-131.712 0-238.891-106.155-238.891-236.629 0-10.88 0.939-21.931 2.859-33.792 3.371-20.736-8.875-40.832-28.843-47.36-59.307-19.456-99.2-74.155-99.2-136.064 0-93.568 97.963-100.821 128-100.821h128c23.552 0 42.667-19.115 42.667-42.667s-19.115-42.667-42.667-42.667h-128c-127.616 0-213.333 74.795-213.333 186.155 0 87.125 49.237 165.163 125.483 203.733-0.213 4.523-0.299 9.003-0.299 13.483 0 177.536 145.451 321.963 324.224 321.963 126.805 0 241.28-73.728 293.973-186.411 155.819-6.485 280.619-134.4 280.619-290.688 0-141.525-98.603-248.235-229.333-248.235zM353.835 371.499l128 128c3.925 3.925 8.619 7.040 13.867 9.216 10.411 4.309 22.187 4.309 32.597 0 5.248-2.176 9.941-5.291 13.867-9.216l128-128c16.683-16.683 16.683-43.648 0-60.331-8.32-8.32-19.243-12.501-30.165-12.501s-21.845 4.181-30.165 12.501l-55.168 55.168v-281.003c0-23.552-19.115-42.667-42.667-42.667s-42.667 19.115-42.667 42.667v281.003l-55.168-55.168c-16.683-16.683-43.648-16.683-60.331 0s-16.683 43.648 0 60.331z" />
<glyph unicode="&#xe928;" glyph-name="drawer" d="M932.395 21.333h-847.104c-46.677 0-84.693 38.272-84.693 85.333v341.333c0 1.621 0.768 3.029 0.939 4.608s-0.256 3.072 0.085 4.651l84.693 384c4.309 19.499 21.504 33.408 41.344 33.408h762.368c19.883 0 37.035-13.909 41.387-33.408l84.693-384c0.341-1.621-0.085-3.157 0.085-4.736s0.896-2.944 0.896-4.523v-341.333c0-47.061-38.016-85.333-84.693-85.333zM856.064 789.333h-694.443l-65.877-298.667h243.712c23.381 0 42.325-19.115 42.325-42.667 0-70.571 57.003-128 127.061-128s127.061 57.429 127.061 128c0 23.552 18.944 42.667 42.368 42.667h243.669l-65.877 298.667zM936.021 405.333h-219.691c-19.669-97.237-105.216-170.667-207.488-170.667-102.229 0-187.819 73.429-207.488 170.667h-218.667v-298.667h853.333v298.667z" />
<glyph unicode="&#xe929;" glyph-name="dribbble" horiz-adv-x="1023" d="M1020.672 414.72c0.939-4.096 1.92-8.235 1.579-12.672-0.341-4.395-1.877-8.277-3.413-12.203-28.971-254.976-245.419-453.845-507.648-453.845-281.856 0-511.147 229.675-511.147 512 0 21.589 1.792 42.709 4.395 63.616 0.085 0.768-0.171 1.451 0 2.219 0.085 0.469 0.427 0.853 0.512 1.323 21.547 163.541 120.491 302.635 258.432 379.861 1.877 1.493 4.053 2.219 6.101 3.371 72.021 39.040 154.197 61.611 241.707 61.611 129.365 0 247.296-48.768 337.408-128.384 0.171-0.128 0.341-0.085 0.512-0.213 2.56-1.579 4.181-3.925 6.272-5.931 102.315-93.696 166.997-228.011 166.997-377.472 0-11.221-0.981-22.229-1.707-33.28zM928.896 364.672c-85.248 3.285-161.749-2.944-230.869-14.848 19.413-80.128 29.611-170.197 27.605-270.251 103.381 60.629 179.157 163.627 203.264 285.099zM511.189 21.333c44.8 0 87.808 7.339 128.341 20.224 6.059 109.184-4.651 205.483-25.813 290.133-204.544-54.315-325.888-160.085-374.741-211.499 73.899-61.653 168.789-98.859 272.213-98.859zM85.248 448c0-100.949 35.371-193.664 94.080-266.795 57.856 60.16 190.933 173.653 409.643 232.32-12.331 34.347-26.027 66.56-41.088 96.299-86.869-38.571-192.725-65.536-318.805-65.536-44.928 0-93.269 4.779-143.403 12.331-0.043-2.901-0.427-5.717-0.427-8.619zM95.787 541.227c169.259-25.899 304.555-0.299 409.429 44.117-80.725 125.483-174.592 198.101-215.296 225.877-96.725-59.435-168.576-155.776-194.133-269.995zM511.189 874.667c-46.507 0-91.008-8.32-132.907-22.229 55.381-43.136 135.083-117.12 204.843-227.755 94.251 55.637 155.093 122.709 185.472 162.475-71.595 54.656-160.64 87.509-257.408 87.509zM831.104 728.789c-36.821-46.592-104.533-118.955-206.037-179.029 18.219-36.096 34.816-75.264 49.237-117.547 78.379 14.208 165.504 21.547 262.784 17.408-0.427 106.923-40.533 204.416-105.984 279.168z" />
<glyph unicode="&#xe92a;" glyph-name="dropbox" horiz-adv-x="1025" d="M872.709 575.861l140.24-140.583c9.381-9.424 13.878-22.659 12.079-35.852-1.756-13.193-9.595-24.801-21.117-31.398l-152.705-87.211c0.086-1.114 0.643-2.056 0.643-3.213v-128.118c0-15.292-8.181-29.384-21.374-37.009l-296.414-170.867c-0.643-0.343-1.414-0.214-2.013-0.514-5.911-3.041-12.293-5.183-19.361-5.183-7.025 0-13.364 2.099-19.233 5.097-0.6 0.3-1.328 0.171-1.97 0.514l-299.070 170.867c-13.022 7.453-21.203 21.203-21.546 36.195l-2.656 128.118c-0.043 2.399 0.9 4.498 1.242 6.811l-147.95 84.512c-11.565 6.597-19.361 18.205-21.16 31.398-1.756 13.193 2.741 26.429 12.122 35.852l140.24 140.583-140.24 140.583c-9.381 9.381-13.878 22.659-12.122 35.81 1.799 13.193 9.595 24.801 21.16 31.398l299.070 170.909c16.791 9.595 37.866 6.725 51.487-6.939l140.625-141.011 140.668 141.011c13.621 13.664 34.696 16.534 51.444 6.939l299.113-170.909c11.522-6.597 19.361-18.205 21.117-31.398 1.799-13.15-2.699-26.429-12.079-35.81l-140.24-140.583zM912.973 414.503l-107.6 107.857-222.097-127.047 107.514-107.771 222.182 126.961zM555.434 52.553l210.96 121.607v58.169l-61.596-35.167c-6.597-3.812-13.921-5.654-21.16-5.654-11.094 0-22.060 4.326-30.284 12.55l-97.92 98.219v-249.725zM513.114 453.611l212.544 121.607-213.358 121.693-212.587-121.607 213.401-121.693zM255.807 174.545l214.172-122.335v250.067l-97.92-98.219c-8.224-8.224-19.233-12.55-30.284-12.55-7.239 0-14.564 1.842-21.203 5.654l-66.008 37.694 1.242-60.311zM334.623 287.542l107.771 108.028-222.354 126.833-107.643-107.9 222.225-126.961zM334.623 864.179l-222.225-126.961 108.371-108.628 222.097 127.047-108.243 108.542zM690.791 864.179l-108.542-108.799 222.354-126.833 108.371 108.671-222.182 126.961z" />
<glyph unicode="&#xe92b;" glyph-name="droplet" d="M512-58.539c-188.203 0-341.333 155.776-341.333 347.221 0 314.539 297.045 645.333 309.675 659.243 16.213 17.835 47.104 17.835 63.317 0 12.629-13.909 309.675-344.704 309.675-659.243 0-191.445-153.131-347.221-341.333-347.221zM512 853.291c-74.752-92.501-256-339.968-256-564.608 0-144.597 114.816-262.187 256-262.187s256 117.589 256 262.187c0 224.64-181.248 472.107-256 564.608z" />
<glyph unicode="&#xe92c;" glyph-name="emoticon" d="M512-64c-282.325 0-512 229.675-512 512s229.675 512 512 512c282.325 0 512-229.675 512-512s-229.675-512-512-512zM512 874.667c-235.264 0-426.667-191.403-426.667-426.667s191.403-426.667 426.667-426.667c235.264 0 426.667 191.403 426.667 426.667s-191.403 426.667-426.667 426.667zM512 106.667c-124.288 0-237.141 74.709-294.485 194.944-10.197 21.291-1.152 46.763 20.096 56.875 21.163 10.24 46.763 1.195 56.875-20.096 43.093-90.325 126.421-146.389 217.515-146.389 91.563 0 174.933 55.979 217.429 146.219 9.984 21.248 35.456 30.549 56.789 20.352 21.291-10.027 30.421-35.456 20.352-56.789-56.704-120.32-169.6-195.115-294.571-195.115zM682.667 448c-47.019 0-85.333 38.315-85.333 85.333 0 47.061 38.315 85.333 85.333 85.333s85.333-38.272 85.333-85.333c0-47.019-38.315-85.333-85.333-85.333zM341.333 448c-47.019 0-85.333 38.315-85.333 85.333 0 47.061 38.315 85.333 85.333 85.333 47.061 0 85.333-38.272 85.333-85.333 0-47.019-38.272-85.333-85.333-85.333z" />
<glyph unicode="&#xe92d;" glyph-name="end" d="M938.667-63.701c-23.552 0-42.667 19.115-42.667 42.667v406.869c-4.608-4.395-9.899-8.448-15.872-11.904l-736.213-427.221c-12.203-7.125-24.875-10.709-37.632-10.709-31.616 0-63.616 24.107-63.616 70.229v883.883c0 45.696 31.531 69.589 62.677 69.589 13.269 0 26.411-3.968 39.125-11.904l737.323-456.448c5.333-3.285 10.027-7.040 14.208-11.136v437.12c0 23.595 19.115 42.667 42.667 42.667s42.667-19.072 42.667-42.667v-938.368c0-23.552-19.115-42.667-42.667-42.667zM128.043 857.685l-0.043-821.547 684.971 397.44-684.928 424.107z" />
<glyph unicode="&#xe92e;" glyph-name="energy" d="M816.939 487.168l-348.288-516.864c-5.803-17.237-21.717-29.525-40.533-29.525-1.792 0-3.541 0.085-5.376 0.341-20.139 2.432-34.56 18.133-36.949 36.949-0.256 1.152-0.128 2.304-0.299 3.456-0.085 2.304-0.811 4.48-0.512 6.827l0.384 3.968c0.171 1.195 0.128 2.347 0.384 3.499l34.261 328.192h-213.333c-31.488 0-25.003 15.061-30.464 25.131-15.403 28.373 3.669 55.808 9.899 64.853l423.125 529.621c14.72 18.432 41.984 21.76 60.928 7.339 10.325-7.893 15.531-19.456 16.128-31.36 0.811-5.291 0.725-10.795-0.683-16.341l-52.267-323.243h170.667c31.317 0 18.176-19.84 23.467-29.525 14.549-26.539-1.792-50.432-10.539-63.317zM590.677 494.677c-19.499 0-43.392 5.419-56.619 20.651-15.317 17.749-22.315 43.136-18.304 66.304l39.083 156.117-264.363-330.795h156.203c24.405 0 43.221-7.467 56.021-22.101 6.784-7.808 17.493-24.789 13.099-51.072l-21.504-171.477 224.384 332.373h-128z" />
<glyph unicode="&#xe92f;" glyph-name="envelope" d="M896 64h-768c-70.571 0-128 57.429-128 128v512c0 70.571 57.429 128 128 128h768c70.571 0 128-57.429 128-128v-512c0-70.571-57.429-128-128-128zM128 149.333h768c23.509 0 42.667 19.115 42.667 42.667v503.339l-399.872-323.157c-7.808-6.357-17.28-9.515-26.795-9.515s-18.987 3.157-26.795 9.515l-399.872 323.157v-503.339c0-23.552 19.157-42.667 42.667-42.667zM866.475 746.667h-708.949l354.475-286.464 354.475 286.464z" />
<glyph unicode="&#xe930;" glyph-name="envelope-letter" horiz-adv-x="1020" d="M892.241-64.086h-763.695c-70.163 0-127.261 57.441-127.261 128.075v426.931c0 0.343 0.171 0.643 0.171 0.985 0.043 1.542 0.6 2.998 0.9 4.498 0.428 3.127 0.9 6.082 2.013 9.081 0.171 0.9 0.257 1.842 0.643 2.656 0.728 1.671 2.013 3.127 3.127 4.669 0.985 1.585 1.328 3.427 2.527 4.926 0.728 0.9 1.756 1.285 2.527 2.099 0.514 0.6 0.814 1.328 1.371 1.842 0.257 0.257 0.343 0.6 0.6 0.814l155.832 142.553v124.734c0 23.559 18.976 42.706 42.406 42.706h140.583l127.861 116.938c16.191 14.778 40.907 14.778 57.055 0l125.119-114.411c0.814-0.728 1.114-1.756 1.842-2.527h141.525c23.43 0 42.406-19.147 42.406-42.706v-124.734l155.832-142.51c0.257-0.257 0.343-0.6 0.6-0.857 0.6-0.557 0.9-1.285 1.371-1.885 0.771-0.814 1.799-1.199 2.527-2.056 1.157-1.499 1.542-3.298 2.527-4.883 1.114-1.542 2.356-2.998 3.127-4.712 0.343-0.814 0.428-1.756 0.643-2.613 1.071-2.998 1.585-5.997 1.97-9.124 0.343-1.499 0.9-2.956 0.9-4.498 0.043-0.343 0.214-0.643 0.214-0.985v-426.931c0-70.634-57.098-128.075-127.261-128.075zM867.697 21.283l-357.325 294.53-357.282-294.53h714.607zM83.013 73.927l201.879 166.369-201.879 163.842v-330.211zM108.885 492.848l62.11-50.373v107.172l-62.11-56.798zM510.372 860.11l-30.198-27.628h60.439l-30.241 27.628zM254.351 749.854v-375.058l97.577-79.201 115.010 94.75c24.93 20.132 61.981 20.089 86.526 0.343l115.396-95.092 99.504 80.743v253.494c-4.326 10.409-4.283 22.017 0 32.511v87.511h-514.013zM849.792 549.603v-107.129l62.067 50.373-62.067 56.756zM939.702 405.722l-203.806-165.427 203.806-167.997v333.423z" />
<glyph unicode="&#xe931;" glyph-name="envelope-open" horiz-adv-x="1028" d="M895.026-64.043h-763.695c-70.163 0-131.33 57.912-131.33 128.546v428.344c0 14.949 9.681 26.729 22.402 33.796l462.226 422.862c16.191 14.778 40.907 14.778 57.098 0l461.455-422.133c13.878-6.939 24.844-19.104 24.844-34.525v-428.344c0-70.634-62.838-128.546-133.001-128.546zM942.358 72.513v333.166l-203.678-165.298 203.678-167.868zM870.481 21.369l-357.282 294.487-357.325-294.487h714.607zM85.669 73.884l202.007 166.497-202.007 163.97v-330.468zM513.199 860.196l-401.53-367.262 243.085-197.295 114.968 94.793c24.93 20.132 61.981 20.132 86.611 0.257l115.31-95.050 243.043 197.295-401.487 367.262z" />
<glyph unicode="&#xe932;" glyph-name="eye" d="M512 64c-332.587 0-512 272.555-512 384s179.413 384 512 384c332.587 0 512-272.555 512-384s-179.413-384-512-384zM512 746.667c-289.451 0-426.667-239.531-426.667-298.667s137.216-298.667 426.667-298.667c289.451 0 426.667 239.531 426.667 298.667s-137.216 298.667-426.667 298.667zM512 234.667c-117.632 0-213.333 95.701-213.333 213.333s95.701 213.333 213.333 213.333c117.632 0 213.333-95.701 213.333-213.333s-95.701-213.333-213.333-213.333zM512 576c-70.571 0-128-57.429-128-128s57.429-128 128-128c70.571 0 128 57.429 128 128s-57.429 128-128 128z" />
<glyph unicode="&#xe933;" glyph-name="eyeglasses" d="M960.213 188.757c-36.096-36.821-89.344-55.467-158.251-55.467h-45.184c-0.896 0-1.749 0.043-2.56 0.085-111.957 3.072-173.312 100.224-195.627 184.661-1.792 2.176-3.627 4.309-5.035 6.869-0.683 1.067-13.312 19.925-47.147 19.925-33.792 0-46.421-18.859-47.744-20.992-0.939-1.493-2.389-2.389-3.456-3.755-21.845-84.907-83.285-183.595-196.139-186.709-0.853-0.043-1.707-0.085-2.56-0.085h-45.227c-68.864 0-122.112 18.645-158.208 55.467-55.339 56.363-53.931 136.661-53.035 184.619l0.128 13.781c0 10.752 1.152 19.968 2.475 29.013-3.627 10.411-3.328 22.187 2.005 32.811l126.635 253.312c4.309 7.552 32.64 53.675 90.539 63.744 45.824 7.936 93.952-8.96 143.232-50.261 17.92-15.019 20.267-41.728 5.291-59.605-14.933-17.92-41.6-20.352-59.477-5.291-28.544 23.893-54.016 34.987-73.813 31.957-20.139-3.2-31.744-21.248-31.872-21.419l-75.307-150.827c23.851 2.347 50.432 3.499 81.408 3.499 105.899 0 217.728-25.131 246.144-92.416 14.336 4.736 30.549 7.765 48.981 7.765 18.603 0 34.944-3.115 49.365-7.893 28.288 67.371 140.203 92.544 246.187 92.544 30.976 0 57.515-1.152 81.323-3.499l-76.715 153.515c0.043 0 0.043-0.043 0-0.043-0.299 0-11.648 15.829-30.336 18.773-19.712 3.029-45.269-8.064-73.813-31.957-17.835-15.104-44.544-12.587-59.477 5.291-14.976 17.877-12.629 44.587 5.248 59.605 49.323 41.301 97.664 58.155 143.275 50.261 57.856-10.069 86.187-56.192 89.259-61.397l127.915-255.659c5.291-10.624 5.632-22.4 2.005-32.811 1.28-9.045 2.432-18.261 2.432-29.013l0.171-13.781c0.853-47.957 2.261-128.256-53.035-184.619zM211.285 429.44c-126.635 0-126.635-8.96-126.635-42.283l-0.128-15.317c-0.683-36.864-1.664-92.715 28.8-123.776 19.627-20.011 52.608-30.165 97.963-30.165h42.24c96.341 0 126.635 131.925 126.635 169.259 0 12.245-59.179 42.283-168.875 42.283zM928.768 371.84l-0.171 15.317c0 33.323 0 42.283-126.635 42.283-109.653 0-168.875-30.037-168.875-42.283 0-37.333 30.336-169.259 126.635-169.259h42.24c45.397 0 78.336 10.155 97.963 30.165 30.507 31.061 29.525 86.912 28.843 123.776z" />
<glyph unicode="&#xe934;" glyph-name="facebook" d="M761.173 566.869l-22.187-87.851c-10.539-41.984-51.541-73.685-95.275-73.685h-46.379v-384c0-47.061-35.371-85.333-82.859-85.333h-86.187c-47.488 0-86.144 38.272-86.144 85.333v384c-47.531 0-86.144 38.272-86.144 85.333v85.333c0 47.061 38.613 85.333 86.144 85.333v85.333c0 103.125 56.576 213.333 215.381 213.333h129.237c23.808 0 38.571-19.115 38.571-42.667v-170.667c0-23.552-14.763-42.667-38.571-42.667h-86.144v-42.667h86.144c24.661 0 47.019-10.411 61.312-28.544 14.336-18.176 19.072-42.197 13.099-65.92zM557.525 576c-23.765 0-43.051 19.115-43.051 42.667v128c0 23.552 19.285 42.667 43.051 42.667h86.187v85.333h-86.187c-85.76 0-129.237-43.051-129.237-128v-128c0-23.552-19.285-42.667-43.051-42.667h-43.093v-85.333h43.093c23.765 0 43.051-19.115 43.051-42.667 0-2.859-1.067-5.333-1.621-8.021v-418.645h87.808v426.667c0 23.552 19.285 42.667 43.051 42.667h86.187c3.883 0 10.752 5.291 11.691 9.003l19.243 76.331h-117.12z" />
<glyph unicode="&#xe935;" glyph-name="feed" d="M981.333 21.333c-23.552 0-42.667 19.072-42.667 42.667v79.019c0 403.456-328.235 731.648-731.648 731.648h-79.019c-23.552 0-42.667 19.072-42.667 42.667s19.115 42.667 42.667 42.667h79.019c450.475 0 816.981-366.507 816.981-816.981v-79.019c0-23.595-19.115-42.667-42.667-42.667zM384 128c0-105.856-86.144-192-192-192s-192 86.144-192 192c0 105.856 86.144 192 192 192s192-86.144 192-192zM85.333 128c0-58.837 47.872-106.667 106.667-106.667s106.667 47.829 106.667 106.667c0 58.837-47.872 106.667-106.667 106.667s-106.667-47.829-106.667-106.667zM128 533.248c-23.552 0-42.667 19.072-42.667 42.667s19.115 42.667 42.667 42.667h38.912c284.373 0 515.755-231.339 515.755-515.669v-38.912c0-23.595-19.115-42.667-42.667-42.667s-42.667 19.072-42.667 42.667v38.912c0 237.312-193.067 430.336-430.421 430.336h-38.912z" />
<glyph unicode="&#xe936;" glyph-name="female" horiz-adv-x="1020" d="M616.149 149.333c-96.043 0-184.277 33.963-253.653 90.368l-111.317-111.701 118.741-119.168c16.597-16.683 16.597-43.648 0-60.331-8.32-8.32-19.2-12.501-30.080-12.501s-21.717 4.181-30.037 12.501l-118.741 119.168-118.699-119.168c-8.32-8.32-19.157-12.501-30.037-12.501s-21.76 4.181-30.080 12.501c-16.597 16.683-16.597 43.648 0 60.331l118.741 119.168-118.741 119.168c-16.597 16.683-16.597 43.648 0 60.331s43.52 16.683 60.117 0l118.699-119.168 111.317 111.701c-56.192 69.675-90.027 158.208-90.027 254.635 0 223.488 181.12 405.333 403.797 405.333s403.797-181.845 403.797-405.333c0-223.488-181.12-405.333-403.797-405.333zM616.149 874.667c-175.787 0-318.805-143.531-318.805-320s143.019-320 318.805-320c175.787 0 318.805 143.531 318.805 320s-143.019 320-318.805 320z" />
<glyph unicode="&#xe937;" glyph-name="female-user" d="M950.059-64h-876.117c-40.789 0-73.941 33.152-73.941 73.899v62.592c0 15.573 8.533 29.952 22.272 37.461l284.885 155.392-151.637 57.472c-14.805 5.632-25.301 19.029-27.221 34.816-1.877 15.787 5.12 31.275 18.261 40.277 66.219 45.483 99.925 234.496 105.557 342.997 0.128 1.749 0.299 3.499 0.64 5.205 21.845 123.947 130.901 213.888 259.243 213.888s237.397-89.941 259.243-213.888c0.341-1.707 0.512-3.456 0.64-5.205 5.632-108.501 39.339-297.515 105.557-342.997 13.099-9.003 20.139-24.491 18.261-40.277-1.877-15.744-12.373-29.141-27.179-34.773l-148.395-56.491 281.899-156.587c13.568-7.509 21.973-21.803 21.973-37.291v-62.592c0-40.747-33.152-73.899-73.941-73.899zM938.667 47.36l-288.981 160.555c-0.043 0.043-0.043 0.043-0.043 0.043-13.184 7.040-51.627 30.592-51.627 66.432 0 29.397 25.301 53.717 62.251 60.501l118.955 45.269c-75.605 112.725-90.325 316.416-92.416 353.493-15.701 81.877-88.747 141.013-174.805 141.013s-159.104-59.136-174.805-141.013c-2.091-37.077-16.811-240.683-92.373-353.408l119.723-45.397c26.837-5.291 62.123-23.68 62.123-57.472 0-29.483-15.275-52.224-46.805-69.547 0 0 0 0-0.043 0 0 0-0.043-0.043-0.085-0.085l-294.4-160.597v-25.813h853.333v26.027z" />
<glyph unicode="&#xe938;" glyph-name="film" d="M938.667-42.667h-853.333c-47.019 0-85.333 38.272-85.333 85.333v810.667c0 47.061 38.315 85.333 85.333 85.333h853.333c47.019 0 85.333-38.272 85.333-85.333v-810.667c0-47.061-38.315-85.333-85.333-85.333zM85.333 853.333v-810.667h853.205l0.128 810.667h-853.333zM853.333 128h-85.333c-23.595 0-42.667 19.115-42.667 42.667v42.667c0 23.552 19.072 42.667 42.667 42.667h85.333c23.595 0 42.667-19.115 42.667-42.667v-42.667c0-23.552-19.072-42.667-42.667-42.667zM853.333 298.667h-85.333c-23.595 0-42.667 19.115-42.667 42.667v42.667c0 23.552 19.072 42.667 42.667 42.667h85.333c23.595 0 42.667-19.115 42.667-42.667v-42.667c0-23.552-19.072-42.667-42.667-42.667zM853.333 469.333h-85.333c-23.595 0-42.667 19.115-42.667 42.667v42.667c0 23.552 19.072 42.667 42.667 42.667h85.333c23.595 0 42.667-19.115 42.667-42.667v-42.667c0-23.552-19.072-42.667-42.667-42.667zM853.333 640h-85.333c-23.595 0-42.667 19.115-42.667 42.667v42.667c0 23.552 19.072 42.667 42.667 42.667h85.333c23.595 0 42.667-19.115 42.667-42.667v-42.667c0-23.552-19.072-42.667-42.667-42.667zM256 128h-85.333c-23.595 0-42.667 19.115-42.667 42.667v42.667c0 23.552 19.072 42.667 42.667 42.667h85.333c23.595 0 42.667-19.115 42.667-42.667v-42.667c0-23.552-19.072-42.667-42.667-42.667zM256 298.667h-85.333c-23.595 0-42.667 19.115-42.667 42.667v42.667c0 23.552 19.072 42.667 42.667 42.667h85.333c23.595 0 42.667-19.115 42.667-42.667v-42.667c0-23.552-19.072-42.667-42.667-42.667zM256 469.333h-85.333c-23.595 0-42.667 19.115-42.667 42.667v42.667c0 23.552 19.072 42.667 42.667 42.667h85.333c23.595 0 42.667-19.115 42.667-42.667v-42.667c0-23.552-19.072-42.667-42.667-42.667zM256 640h-85.333c-23.595 0-42.667 19.115-42.667 42.667v42.667c0 23.552 19.072 42.667 42.667 42.667h85.333c23.595 0 42.667-19.115 42.667-42.667v-42.667c0-23.552-19.072-42.667-42.667-42.667z" />
<glyph unicode="&#xe939;" glyph-name="fire" d="M512-61.397c-231.296 0-426.667 194.901-426.667 425.557 0 130.005 68.949 232.448 71.936 236.757 9.685 14.251 27.179 21.248 43.989 17.707 16.896-3.541 29.995-16.896 33.195-33.835 0.597-2.901 12.373-58.965 60.629-101.973 1.28 132.096 37.845 385.963 287.957 474.709 15.104 5.291 31.915 1.792 43.563-9.173 11.648-10.923 16.171-27.52 11.691-42.837-0.64-2.219-55.552-195.968 23.168-297.301 21.077 54.315 60.16 129.877 125.184 174.123 11.733 8.021 26.795 9.6 40.021 4.309 13.227-5.333 22.912-16.939 25.813-30.848 12.8-62.037 27.392-102.315 41.472-141.269 24.021-66.219 44.715-123.392 44.715-250.368 0-230.656-195.371-425.557-426.667-425.557zM190.635 475.008c-10.88-31.189-19.968-69.589-19.968-110.848 0-184.533 156.288-340.437 341.333-340.437s341.333 155.904 341.333 340.437c0 112.085-17.493 160.341-39.637 221.44-8.405 23.296-17.536 48.384-26.411 78.848-36.352-49.664-57.003-112.64-62.976-139.349-2.987-13.184-12.032-24.192-24.448-29.611-12.459-5.461-26.709-4.736-38.443 2.005-132.736 76.032-135.68 240.981-122.496 343.765-195.541-130.176-155.819-425.216-155.349-428.459 2.133-14.805-3.712-29.653-15.317-39.083-11.605-9.387-27.477-12.075-41.472-6.997-67.413 24.405-109.867 67.84-136.149 108.288z" />
<glyph unicode="&#xe93a;" glyph-name="flag" d="M954.027 407.253c-81.92-67.328-166.101-89.856-249.003-89.856-85.845 0-170.283 23.808-249.429 46.165-126.464 35.669-236.288 65.707-327.595-0.256v-388.651c0-23.637-16.725-42.411-40.064-42.411s-45.269 18.773-45.269 42.411v896c0 15.445 9.728 21.12 22.741 23.509 126.592 102.997 272.085 62.464 412.885 22.699 150.656-42.539 292.821-82.645 427.307 31.317 3.072 2.56 6.613 3.968 10.069 5.504 0.981 0.597 1.92 1.152 2.987 1.664 1.835 0.64 3.669 0.939 5.589 1.323 2.773 0.768 5.291 2.048 8.491 2.048 1.195 0 2.389-0.64 3.627-0.768 0.256-0.043 0.469-0.128 0.683-0.171 22.016-2.432 44.288-22.272 44.288-44.459v-469.333c0-16.256-12.245-29.653-27.307-36.736zM705.024 788.181c-85.845 0-170.283 23.851-249.429 46.208-126.464 35.712-236.288 65.664-327.595-0.256v-372.437c110.848 50.645 232.149 17.707 350.293-15.659 147.072-41.515 286.037-80.341 417.707 23.851v367.616c-63.36-36.267-127.531-49.323-190.976-49.323z" />
<glyph unicode="&#xe93b;" glyph-name="folder" d="M938.667 21.973h-853.333c-47.019 0-85.333 38.059-85.333 84.779v678.4c0 46.763 38.315 89.515 85.333 89.515h298.667c12.672 0 23.765-7.083 31.573-17.067l109.355-72.448h413.739c47.019 0 85.333-38.059 85.333-84.821v-593.579c0-46.72-38.315-84.779-85.333-84.779zM938.667 106.752v426.581h-853.333v-426.581h853.333zM512 700.331c0 0 0 0.043-0.043 0.043 0 0 0-0.043 0-0.043-4.949 0-9.856 1.195-14.677 2.987-1.536 0.555-2.901 1.28-4.395 2.048-1.493 0.725-3.115 1.152-4.565 2.091l-123.563 81.877h-279.424v-170.667h853.333v81.664h-426.667z" />
<glyph unicode="&#xe93c;" glyph-name="folder2" d="M938.667 21.419h-853.333c-47.061 0-85.333 38.059-85.333 84.821v678.357c0 46.763 38.272 90.069 85.333 90.069h298.667c12.843 0 23.979-7.467 31.787-17.792l109.141-72.277h413.739c47.061 0 85.333-38.059 85.333-84.821v-593.536c0-46.763-38.272-84.821-85.333-84.821zM938.667 699.776h-426.667c0 0 0 0-0.043 0 0 0 0 0 0 0-4.992 0-9.899 1.195-14.72 2.987-1.493 0.555-2.859 1.28-4.267 1.963-1.536 0.768-3.157 1.195-4.651 2.176l-124.416 82.432h-278.571v-683.093h853.333v593.536z" />
<glyph unicode="&#xe93d;" glyph-name="follow" d="M981.333 64h-85.333v-85.333c0-23.552-19.115-42.667-42.667-42.667s-42.667 19.115-42.667 42.667v85.333h-85.333c-23.552 0-42.667 19.115-42.667 42.667 0 23.595 19.115 42.667 42.667 42.667h85.333v85.376c0 23.552 19.115 42.667 42.667 42.667s42.667-19.115 42.667-42.667v-85.376h85.333c23.552 0 42.667-19.072 42.667-42.667 0-23.552-19.115-42.667-42.667-42.667zM737.621 275.584c22.528-6.827 35.371-30.592 28.587-53.163-5.547-18.475-22.485-30.421-40.875-30.421-4.053 0-8.149 0.597-12.288 1.835l-85.376 25.6c-1.451 0.427-2.475 1.493-3.84 2.091-2.645 1.067-5.035 2.347-7.424 3.968-2.475 1.664-4.565 3.456-6.613 5.547-1.024 1.024-2.347 1.579-3.285 2.773-0.768 0.981-0.981 2.219-1.664 3.285-1.621 2.432-2.816 4.992-3.925 7.723-0.981 2.517-1.835 4.907-2.347 7.552s-0.597 5.205-0.64 7.979c0.043 2.901 0.213 5.675 0.811 8.576 0.256 1.237-0.043 2.432 0.341 3.669 0.427 1.408 1.451 2.432 2.005 3.797 1.109 2.645 2.432 5.12 4.053 7.552 1.664 2.389 3.413 4.48 5.461 6.485 1.067 1.024 1.621 2.389 2.816 3.328 110.805 87.851 111.915 246.827 111.915 248.405l-0.128 183.68c-15.957 78.336-116.395 148.907-213.205 148.907-96.768-0.085-197.248-70.699-213.205-149.035l-0.128-183.595c0-1.536 1.92-161.237 111.915-248.448 2.987-2.389 4.949-5.504 7.125-8.491 1.195-1.536 2.773-2.645 3.712-4.395 0 0 0 0 0.043 0 2.688-4.949 4.352-10.368 4.949-15.872 0.341-2.987-0.384-5.845-0.683-8.747-0.256-2.56 0-5.12-0.683-7.595-1.536-5.333-4.053-10.411-7.552-14.848 0 0 0 0 0 0-0.085-0.085-0.171-0.128-0.256-0.213-3.371-4.224-7.595-7.893-12.629-10.667l-319.275-175.531v-25.984h554.667c23.552 0 42.667-19.115 42.667-42.667s-19.115-42.667-42.667-42.667h-566.059c-40.747 0-73.941 33.195-73.941 73.984v62.592c0 15.531 8.491 29.867 22.101 37.376l290.773 159.872c-98.304 113.408-99.541 265.131-99.541 272.341l0.128 187.563 0.64 7.253c23.040 133.376 172.672 223.019 297.899 223.019h0.171c125.184 0 274.688-89.515 297.728-222.933l0.64-7.253 0.128-187.563c0-6.997-1.365-149.419-90.624-261.419l17.579-5.248z" />
<glyph unicode="&#xe93e;" glyph-name="following" horiz-adv-x="1019" d="M1009.323 165.376l-169.813-213.333c-7.552-9.515-18.773-15.317-30.805-15.957l-2.347-0.085c-11.264 0-22.059 4.48-30.037 12.501l-127.36 128c-16.597 16.683-16.597 43.691 0 60.331 16.555 16.683 43.435 16.683 60.032 0l93.824-94.293 140.203 176.128c14.677 18.389 41.429 21.376 59.691 6.656 18.304-14.677 21.291-41.557 6.613-59.947zM783.872 229.675c20.693-11.093 28.501-36.949 17.493-57.728-7.68-14.421-22.357-22.613-37.504-22.613-6.741 0-13.611 1.621-19.968 5.035l-127.403 68.352c-0.085 0.043-0.128 0.085-0.213 0.128-2.475 1.365-4.395 3.669-6.613 5.504-2.133 1.792-4.608 3.243-6.315 5.333-0.043 0.085-0.128 0.085-0.171 0.171-1.109 1.365-1.408 3.072-2.304 4.565-1.963 3.243-4.053 6.4-5.077 10.027-0.811 2.688-0.64 5.461-0.853 8.192-0.256 2.731-0.896 5.376-0.64 8.107 0.427 4.053 1.92 7.851 3.499 11.648 0.512 1.323 0.512 2.731 1.195 4.053 0.043 0.043 0.085 0.085 0.128 0.128 1.323 2.517 3.627 4.48 5.461 6.741 1.792 2.133 3.243 4.651 5.376 6.357 0.043 0.043 0.043 0.085 0.085 0.128 109.483 87.211 111.36 246.869 111.36 248.491l-0.128 183.552c-15.872 78.336-115.84 148.907-212.181 148.907-96.299-0.085-196.267-70.656-212.181-148.992l-0.085-183.637c0-1.536 1.877-161.152 111.275-248.363 0 0 0 0 0.043-0.043 0 0 0 0 0 0 0.512-0.427 0.768-1.067 1.237-1.493 3.712-3.2 7.125-6.827 9.6-11.392 0 0 0 0 0 0 2.731-4.949 4.352-10.368 4.949-15.872 0.299-2.816-0.384-5.504-0.64-8.235-0.213-2.731 0.043-5.461-0.725-8.107-2.987-10.581-9.984-20.011-20.352-25.728l-317.696-175.531v-26.027h509.525c23.424 0 42.453-19.115 42.453-42.667s-19.029-42.667-42.453-42.667h-520.875c-40.576 0-73.6 33.195-73.6 74.027v62.592c0 15.531 8.448 29.867 22.016 37.376l289.365 159.872c-97.835 113.365-99.072 265.088-99.072 272.299l0.128 187.605 0.64 7.253c22.955 133.376 171.819 222.976 296.448 222.976h0.213c124.587 0 273.323-89.515 296.277-222.933l0.64-7.253 0.128-187.563c0-7.211-1.237-158.421-98.56-271.787l76.075-40.789z" />
<glyph unicode="&#xe93f;" glyph-name="forward" d="M441.344 64v0c-32.725 0-57.429 26.795-57.429 62.379v119.083l-292.779-171.691c-10.325-6.315-22.144-9.771-33.707-9.771-32.725 0-57.429 26.795-57.429 62.379v643.712c0 35.285 24.405 61.909 56.747 61.909 12.032 0 24.32-3.84 35.541-11.136l291.627-170.496v119.723c0 35.285 24.405 61.909 56.747 61.909 12.032 0 24.32-3.84 35.541-11.136l517.077-330.923c19.755-12.928 30.72-32.384 30.421-53.589s-11.819-40.277-31.659-52.395l-516.608-310.016c-10.709-6.485-22.528-9.941-34.091-9.941zM85.291 726.144v-556.885l319.701 187.52c13.227 7.765 29.525 7.765 42.752 0.256 13.269-7.637 21.461-21.76 21.461-37.077v-150.187l446.976 268.16-446.976 286.080v-148.011c0-15.317-8.149-29.44-21.419-37.035s-29.568-7.424-42.752 0.171l-319.744 187.008z" />
<glyph unicode="&#xe940;" glyph-name="frame" d="M981.589 64h-212.139c-23.424 0-42.411 19.072-42.411 42.667s18.987 42.667 42.411 42.667h169.728v170.667c0 23.595 18.987 42.667 42.411 42.667 23.467 0 42.453-19.072 42.453-42.667v-213.333c0-23.595-18.987-42.667-42.453-42.667zM975.488 534.315c-23.467 0-36.821 18.091-36.821 41.685v170.667h-175.36c-23.424 0-42.411 19.072-42.411 42.667s18.987 42.667 42.411 42.667h212.181c23.424 0 42.411-19.072 42.411-42.667v-212.352c0-23.552-18.987-42.667-42.411-42.667zM254.165 64h-212.181c-23.424 0-42.411 19.072-42.411 42.667v212.352c0 23.552 18.987 42.667 42.411 42.667 23.467 0 42.453-19.115 42.453-42.667v-169.685h169.728c23.424 0 42.411-19.072 42.411-42.667s-18.987-42.667-42.411-42.667zM254.165 746.667h-169.728v-170.667c0-23.595-18.987-42.667-42.453-42.667-23.424 0-42.411 19.072-42.411 42.667v213.333c0 23.595 18.987 42.667 42.411 42.667h212.181c23.424 0 42.411-19.072 42.411-42.667s-18.987-42.667-42.411-42.667z" />
<glyph unicode="&#xe941;" glyph-name="friends" d="M970.224 75.636h-637.176c-29.665 0-53.776 24.142-53.776 53.807v45.521c0 10.892 5.741 20.976 15.050 26.593l213.178 127.938c-72.145 80.648-73.076 188.944-73.076 194.095l0.093 132.81c0 1.831 0.155 3.631 0.496 5.43 16.818 94.798 125.58 158.472 216.623 158.472 0.031 0 0.093 0 0.155 0 90.981 0 199.68-63.612 216.467-158.41 0.341-1.8 0.496-3.6 0.496-5.43l0.093-132.81c0-5.151-0.931-113.509-73.076-194.157l213.178-127.876c9.309-5.616 15.050-15.701 15.050-26.624v-45.552c0-29.665-24.111-53.807-53.776-53.807zM961.939 157.401l-233.224 139.947c-2.7 1.645-4.686 3.879-6.672 6.113-0.559 0.621-1.365 0.869-1.893 1.52-0.093 0.124-0.093 0.248-0.186 0.341-1.707 2.296-2.669 4.903-3.693 7.54-0.465 1.148-1.303 2.203-1.583 3.382-0.528 1.986-0.279 4.034-0.403 6.051-0.093 1.955-0.559 3.879-0.31 5.803 0.186 1.272 0.9 2.482 1.241 3.755 0.714 2.638 1.334 5.306 2.731 7.696 0.093 0.124 0.062 0.248 0.155 0.372 1.055 1.769 2.638 2.886 3.972 4.375 1.241 1.396 2.11 3.041 3.662 4.22 80.275 61.999 81.051 173.925 81.051 175.073l-0.093 129.893c-11.636 55.172-84.651 104.82-155.058 104.82-70.408-0.031-143.422-49.711-155.058-104.882l-0.093-129.862c0-1.086 1.427-113.54 81.051-175.042 1.583-1.241 2.513-2.917 3.786-4.344 1.272-1.458 2.824-2.544 3.848-4.251 0.093-0.124 0.062-0.248 0.155-0.372 1.396-2.389 2.017-5.058 2.731-7.696 0.341-1.272 1.055-2.482 1.241-3.755 0.248-1.924-0.186-3.848-0.31-5.803-0.124-2.017 0.124-4.065-0.403-6.051-0.279-1.179-1.117-2.234-1.583-3.382-1.024-2.638-1.986-5.244-3.693-7.54-0.093-0.093-0.093-0.217-0.186-0.341-1.148-1.458-2.7-2.296-4.034-3.475-1.52-1.396-2.7-3.041-4.53-4.158l-233.224-139.947v-19.704h620.606v19.704zM398.801 756.038c-8.999 1.52-17.904 2.265-26.438 2.265-70.408-0.031-143.422-49.711-155.058-104.882l-0.093-129.862c0-1.086 1.427-113.54 81.051-175.042 1.614-1.241 2.513-2.917 3.786-4.375 1.272-1.427 2.824-2.513 3.848-4.22 0.093-0.124 0.062-0.248 0.155-0.372 1.396-2.389 2.017-5.058 2.731-7.696 0.341-1.272 1.055-2.482 1.241-3.755 0.248-1.924-0.186-3.848-0.31-5.803-0.124-2.017 0.124-4.065-0.403-6.051-0.279-1.179-1.117-2.234-1.583-3.382-1.024-2.638-1.986-5.244-3.693-7.54-0.093-0.093-0.093-0.217-0.186-0.341-0.528-0.652-1.334-0.9-1.893-1.52-1.986-2.234-3.972-4.468-6.672-6.113l-233.224-139.947v-19.704h126.697c17.16 0 31.030-13.902 31.030-31.030 0-17.16-13.871-31.030-31.030-31.030h-134.982c-29.665 0-53.776 24.142-53.776 53.807v45.521c0 10.892 5.741 20.976 15.050 26.593l213.178 127.938c-72.145 80.648-73.076 188.944-73.076 194.095l0.093 132.81c0 1.831 0.155 3.631 0.496 5.43 16.787 94.798 125.58 158.472 216.623 158.472 11.792 0.062 24.173-0.993 36.802-3.103 16.849-2.855 28.269-18.866 25.414-35.747-2.886-16.88-18.649-28.331-35.778-25.414z" />
<glyph unicode="&#xe942;" glyph-name="full-screen" horiz-adv-x="1021" d="M1017.532-37.614c-4.283-10.452-12.593-18.761-23.002-23.088-5.183-2.142-10.709-3.298-16.234-3.298h-212.587c-23.473 0-42.492 19.104-42.492 42.663 0 23.602 19.018 42.706 42.492 42.706h109.956l-267.544 268.529c-16.62 16.663-16.62 43.691 0 60.354s43.52 16.663 60.097 0l267.587-268.572v110.384c0 23.559 18.976 42.663 42.492 42.663s42.535-19.104 42.535-42.663v-213.358c0-5.568-1.157-11.094-3.298-16.32zM978.296 661.444c-23.516 0-42.492 19.147-42.492 42.706v110.342l-267.587-268.529c-8.267-8.353-19.147-12.508-30.027-12.508s-21.76 4.155-30.070 12.508c-16.62 16.663-16.62 43.648 0 60.311l267.544 268.572h-109.956c-23.473 0-42.492 19.104-42.492 42.663s19.018 42.663 42.492 42.663h212.587c5.526 0 11.051-1.114 16.234-3.298 10.409-4.326 18.719-12.636 23.002-23.045 2.142-5.226 3.298-10.751 3.298-16.32v-213.358c0-23.559-19.018-42.706-42.535-42.706zM145.594 21.369h109.956c23.473 0 42.492-19.104 42.492-42.706 0-23.559-19.018-42.663-42.492-42.663h-212.587c-5.526 0-11.051 1.157-16.234 3.298-10.409 4.326-18.676 12.636-23.002 23.088-2.142 5.226-3.255 10.751-3.255 16.277v213.401c0 23.559 19.018 42.663 42.492 42.663 23.516 0 42.535-19.104 42.535-42.663v-110.384l267.544 268.572c16.577 16.663 43.52 16.663 60.097 0 16.62-16.663 16.62-43.691 0-60.354l-267.544-268.529zM383.068 533.455c-10.88 0-21.717 4.155-30.027 12.508l-267.544 268.529v-110.342c0-23.559-19.018-42.706-42.535-42.706-23.473 0-42.492 19.147-42.492 42.706v213.358c0 5.568 1.114 11.094 3.255 16.32 4.326 10.409 12.593 18.719 23.002 23.045 5.183 2.185 10.709 3.298 16.234 3.298h212.587c23.473 0 42.492-19.104 42.492-42.663s-19.018-42.663-42.492-42.663h-109.956l267.544-268.572c16.62-16.663 16.62-43.648 0-60.311-8.31-8.353-19.19-12.508-30.070-12.508z" />
<glyph unicode="&#xe943;" glyph-name="ghost" d="M928-18.645c-0.213-2.944-0.896-5.675-1.707-8.533-0.725-2.56-1.365-5.035-2.56-7.381-1.152-2.304-2.731-4.309-4.309-6.443-1.792-2.347-3.541-4.565-5.76-6.528-0.768-0.64-1.152-1.579-1.92-2.176-1.365-1.024-2.987-1.28-4.437-2.091-2.475-1.493-4.907-2.773-7.637-3.712-2.901-0.981-5.675-1.408-8.619-1.749-1.621-0.171-2.987-0.939-4.651-0.939-0.939 0-1.792 0.512-2.731 0.555-3.029 0.213-5.845 0.939-8.747 1.792-2.475 0.725-4.864 1.323-7.083 2.475-2.389 1.195-4.437 2.816-6.613 4.437-2.261 1.792-4.437 3.541-6.315 5.717-0.683 0.768-1.579 1.152-2.219 1.963l-92.843 124.544-92.672-124.501c-0.939-1.28-2.432-1.749-3.499-2.901-1.707-1.835-2.859-4.011-4.949-5.589-1.451-1.109-3.157-1.579-4.693-2.475-1.408-0.811-2.731-1.579-4.224-2.219-5.291-2.261-10.752-3.797-16.341-3.797 0 0 0 0-0.043 0 0 0 0 0-0.043 0-5.547 0-11.008 1.536-16.299 3.797-1.536 0.64-2.816 1.408-4.267 2.261-1.536 0.853-3.2 1.323-4.651 2.432-2.091 1.579-3.243 3.755-4.949 5.589-1.067 1.152-2.56 1.621-3.499 2.901l-92.757 124.501-92.8-124.501c-1.237-1.664-2.987-2.56-4.437-4.011-1.408-1.408-2.304-3.2-3.968-4.48-0.725-0.555-1.621-0.725-2.389-1.237-1.707-1.152-3.456-1.92-5.291-2.773-2.816-1.323-5.632-2.389-8.619-3.029-1.92-0.427-3.755-0.768-5.675-0.939-1.109-0.085-2.176-0.512-3.285-0.512-1.323 0-2.517 0.768-3.84 0.896-3.755 0.341-7.339 1.152-10.965 2.56-2.261 0.853-4.309 1.792-6.4 3.072-1.365 0.768-2.859 1.024-4.139 1.963-2.091 1.579-3.285 3.797-4.992 5.632-1.024 1.152-2.475 1.621-3.413 2.859l-92.8 124.501-92.757-124.501c-0.597-0.811-1.493-1.152-2.133-1.92-1.92-2.219-4.096-4.011-6.4-5.76-2.176-1.707-4.224-3.328-6.613-4.523-2.219-1.067-4.523-1.707-6.912-2.432-2.987-0.853-5.845-1.579-8.917-1.792-0.939-0.043-1.749-0.555-2.731-0.555-1.621 0-3.029 0.768-4.608 0.939-2.944 0.341-5.717 0.768-8.576 1.749-2.816 0.939-5.248 2.219-7.765 3.712-1.408 0.811-3.029 1.067-4.352 2.091-0.811 0.597-1.195 1.536-1.92 2.176-2.261 1.963-4.011 4.181-5.803 6.528-1.579 2.133-3.157 4.139-4.309 6.443-1.195 2.347-1.835 4.821-2.56 7.381-0.811 2.859-1.493 5.589-1.707 8.533-0.043 1.024-0.555 1.877-0.555 2.901v551.851c0 234.069 189.099 424.491 421.632 424.491 232.491 0 421.632-190.421 421.632-424.491v-551.851c0-1.024-0.512-1.877-0.597-2.901zM506.965 875.691c-185.984 0-337.323-152.32-337.323-339.584v-424.533l50.603 67.925c15.915 21.419 51.541 21.419 67.456 0l92.757-124.544 92.757 124.544c15.915 21.419 51.584 21.419 67.456 0l92.757-124.501 92.672 124.501c7.979 10.709 20.48 17.024 33.749 17.024v0c13.269 0 25.771-6.315 33.707-16.981l50.688-67.968v424.533c0 187.264-151.296 339.584-337.28 339.584zM654.507 451.2c-34.859 0-63.232 28.587-63.232 63.659 0 35.115 28.373 63.701 63.232 63.701 34.901 0 63.275-28.587 63.275-63.701 0-35.072-28.373-63.659-63.275-63.659zM359.381 451.2c-34.859 0-63.232 28.587-63.232 63.659 0 35.115 28.373 63.701 63.232 63.701s63.232-28.587 63.232-63.701c0-35.072-28.373-63.659-63.232-63.659z" />
<glyph unicode="&#xe944;" glyph-name="globe-1" horiz-adv-x="1027" d="M513.326-64.043c-283.057 0-513.326 229.756-513.326 512.171 0 282.458 230.27 512.214 513.326 512.214s513.326-229.756 513.326-512.214c0-282.415-230.27-512.171-513.326-512.171zM882.365 234.756h-105.66c-21.902-63.481-53.172-123.583-93.34-178.039 84.014 36.446 153.185 99.628 198.999 178.039zM684.863 234.756h-128.759v-193.524c56.038 55.91 99.5 121.872 128.759 193.524zM727.212 448.128c0 44.103-5.775 87.394-15.742 129.529h-155.367v-257.561h155.709c9.796 41.708 15.4 84.485 15.4 128.032zM470.549 234.756h-128.802c29.26-71.737 72.721-137.743 128.802-193.652v193.652zM343.073 56.803c-40.082 54.413-71.31 114.514-93.169 177.953h-105.617c45.772-78.325 114.857-141.464 198.786-177.953zM85.554 448.128c0-44.617 7.058-87.565 19.891-128.032h121.616c-8.342 41.879-13.175 84.613-13.175 127.947 0 43.932 4.919 87.223 13.518 129.615h-121.402c-13.133-40.895-20.447-84.314-20.447-129.529zM144.287 661.544h105.702c21.859 63.481 53.172 123.626 93.34 178.081-84.057-36.489-153.228-99.671-199.042-178.081zM470.549 854.939c-55.995-55.867-99.5-121.744-128.717-193.396h128.717v193.396zM315.225 577.658c-10.010-42.178-15.785-85.512-15.785-129.615 0-43.504 5.604-86.282 15.357-127.947h155.752v257.561h-155.324zM556.103 661.544h128.759c-29.26 71.695-72.721 137.657-128.759 193.567v-193.567zM683.451 839.539c40.125-54.455 71.395-114.514 93.254-177.996h105.66c-45.772 78.368-114.942 141.507-198.914 177.996zM920.65 577.658h-121.402c8.598-42.349 13.518-85.64 13.518-129.529 0-43.333-4.834-86.11-13.218-128.032h121.701c12.79 40.467 19.849 83.415 19.849 128.032 0 45.215-7.315 88.634-20.447 129.529z" />
<glyph unicode="&#xe945;" glyph-name="globe-2" d="M489.739 77v-46.525h89.043c24.621 0 44.522-19.812 44.522-44.299 0-24.442-19.901-44.255-44.522-44.255h-267.13c-24.621 0-44.522 19.812-44.522 44.255 0 24.487 19.901 44.299 44.522 44.299h89.043v47.816c-89.489 8.014-174.347 38.6-247.185 92.472-19.723 14.648-23.819 42.385-9.171 61.974 14.648 19.545 42.652 23.686 62.33 9.127 69.365-51.378 151.908-78.536 238.547-78.536 220.961 0 400.696 178.799 400.696 398.603 0 126.442-58.546 242.688-160.723 318.954-19.679 14.648-23.641 42.429-8.904 62.019 14.737 19.545 42.652 23.463 62.375 8.815 124.75-93.095 196.296-235.164 196.296-389.788 0-253.685-195.985-462.447-445.217-484.931zM801.391 561.931c0-195.361-159.789-354.304-356.174-354.304s-356.174 158.943-356.174 354.304c0 195.361 159.789 354.259 356.174 354.259s356.174-158.898 356.174-354.259zM445.217 827.637c-147.322 0-267.13-119.185-267.13-265.706s119.808-265.75 267.13-265.75c147.322 0 267.13 119.229 267.13 265.75s-119.808 265.706-267.13 265.706z" />
<glyph unicode="&#xe946;" glyph-name="graduation-cap" d="M938.667 109.099c-47.061 0-85.333 38.229-85.333 85.163 0 31.36 17.28 58.539 42.667 73.344v236.544l-86.357-49.28c0.213-1.749 1.024-3.285 1.024-5.12v-298.069c0-0.939-0.469-1.749-0.555-2.731-0.171-2.944-0.939-5.717-1.749-8.576-0.725-2.56-1.323-5.035-2.475-7.381s-2.773-4.352-4.395-6.485c-1.792-2.389-3.541-4.608-5.76-6.571-0.725-0.64-1.067-1.493-1.835-2.091-5.035-3.84-125.269-93.909-303.232-93.909-177.877 0-298.197 90.069-303.189 93.909-0.768 0.555-1.109 1.451-1.835 2.048-2.261 1.963-4.053 4.267-5.845 6.656-1.579 2.133-3.2 4.096-4.352 6.4-1.152 2.389-1.749 4.864-2.517 7.467-0.768 2.859-1.536 5.589-1.707 8.533-0.085 0.939-0.555 1.749-0.555 2.731v298.069c0 1.835 0.811 3.371 1.024 5.12l-150.187 85.675c-13.312 7.552-21.504 21.717-21.504 36.949 0 15.275 8.192 29.397 21.504 36.992l448 255.488c13.099 7.467 29.227 7.467 42.325 0l448-255.488c13.312-7.595 21.504-21.717 21.504-36.992 0-2.517-1.493-4.651-1.92-7.083 0.725-3.115 1.92-6.101 1.92-9.472v-293.333c25.387-14.805 42.667-41.984 42.667-73.344 0-46.933-38.272-85.163-85.333-85.163zM725.333 174.507v232.277l-213.504-121.728c-6.571-3.755-13.867-5.632-21.163-5.632s-14.592 1.877-21.163 5.632l-213.504 121.728v-232.107c34.517-21.035 120.832-65.579 234.667-65.579 114.688 0 200.363 44.331 234.667 65.408zM490.667 783.957l-361.984-206.464 361.984-206.464 361.984 206.464-361.984 206.464z" />
<glyph unicode="&#xe947;" glyph-name="graph" d="M938.667 576c-9.771 0-19.029 2.005-27.819 5.035l-189.397-151.595c2.261-7.68 3.883-15.659 3.883-24.107 0-47.061-38.272-85.333-85.333-85.333s-85.333 38.272-85.333 85.333c0 0.469 0.128 0.853 0.128 1.323l-152.107 67.627c-15.531-16.128-37.248-26.283-61.355-26.283-4.053 0-7.893 0.64-11.776 1.195l-164.992-183.296c3.84-9.685 6.101-20.181 6.101-31.189 0-47.061-38.272-85.376-85.333-85.376s-85.333 38.315-85.333 85.376c0 47.019 38.272 85.291 85.333 85.291 4.139 0 8.064-0.64 12.032-1.237l164.821 183.125c-3.883 9.728-6.187 20.309-6.187 31.445 0 47.061 38.272 85.333 85.333 85.333 38.101 0 70.059-25.259 80.981-59.776l177.365-78.805c12.075 6.528 25.643 10.581 40.32 10.581 6.4 0 12.587-0.853 18.603-2.176l196.309 157.099c-0.939 5.12-1.579 10.368-1.579 15.744 0 47.061 38.272 85.333 85.333 85.333s85.333-38.272 85.333-85.333c0-47.061-38.272-85.333-85.333-85.333z" />
<glyph unicode="&#xe948;" glyph-name="grid" d="M938.667-64h-298.667c-47.061 0-85.333 38.272-85.333 85.333v298.667c0 47.061 38.272 85.333 85.333 85.333h298.667c47.061 0 85.333-38.272 85.333-85.333v-298.667c0-47.061-38.272-85.333-85.333-85.333zM640 320v-298.667h298.539l0.128 298.667h-298.667zM938.667 490.667h-298.667c-47.061 0-85.333 38.272-85.333 85.333v298.667c0 47.061 38.272 85.333 85.333 85.333h298.667c47.061 0 85.333-38.272 85.333-85.333v-298.667c0-47.061-38.272-85.333-85.333-85.333zM640 874.667v-298.667h298.539l0.128 298.667h-298.667zM384.085-64h-298.752c-47.061 0-85.333 38.272-85.333 85.333v298.667c0 47.061 38.272 85.333 85.333 85.333h298.752c47.061 0 85.333-38.272 85.333-85.333v-298.667c0-47.061-38.272-85.333-85.333-85.333zM85.333 320v-298.667h298.624l0.128 298.667h-298.752zM384.085 490.667h-298.752c-47.061 0-85.333 38.272-85.333 85.333v298.667c0 47.061 38.272 85.333 85.333 85.333h298.752c47.061 0 85.333-38.272 85.333-85.333v-298.667c0-47.061-38.272-85.333-85.333-85.333zM85.333 874.667v-298.667h298.624l0.128 298.667h-298.752z" />
<glyph unicode="&#xe949;" glyph-name="handbag" horiz-adv-x="1019" d="M1004.843-38.571c-12.544-16.171-32.043-25.429-53.461-25.429h-882.347c-20.523 0-39.851 8.704-52.992 23.851-13.184 15.189-19.115 35.584-16.299 56.064l80.725 546.432c8.619 55.637 58.965 98.987 114.603 98.987h101.376v85.333c0 117.632 95.317 213.333 212.437 213.333s212.395-95.701 212.395-213.333v-85.333h104.064c56.363 0 105.984-43.947 112.981-100.096l78.763-544c4.224-20.096-0.171-40.277-12.245-55.808zM338.944 405.333v0 0c0 0 0 0 0 0zM636.288 746.667c0 70.571-57.173 128-127.403 128-70.272 0-127.488-57.429-127.488-128v-85.333h254.891v85.333zM678.912 408.192c0 0 0 0 0 0v0zM854.144 549.76c-1.749 13.867-15.659 26.24-28.8 26.24h-104.064v-54.485c25.259-14.805 42.453-42.027 42.453-73.515 0-47.061-38.016-85.333-84.821-85.333-46.933 0-85.077 38.272-85.077 85.333 0 31.403 17.195 58.624 42.453 73.429v54.571h-254.891v-54.528c25.259-14.805 42.496-42.027 42.496-73.472 0-47.061-38.101-85.333-84.949-85.333s-84.992 38.272-84.992 85.333c0 31.445 17.195 58.667 42.496 73.472v54.528h-101.376c-13.611 0-28.501-12.885-30.635-26.496l-77.995-528.171h844.16l-76.459 528.427z" />
<glyph unicode="&#xe94a;" glyph-name="headphones" d="M938.667-21.333h-85.333c-47.061 0-85.333 38.272-85.333 85.333v255.957c0 47.061 38.272 85.333 85.333 85.333l85.333 0.043c0 235.264-191.403 426.667-426.667 426.667s-426.667-191.403-426.667-426.667v-0.043h85.333c47.061 0 85.333-38.272 85.333-85.333v-255.957c0-47.061-38.272-85.333-85.333-85.333h-85.333c-47.061 0-85.333 38.272-85.333 85.333v341.333c0 282.325 229.675 512 512 512s512-229.675 512-512v-341.333c0-47.061-38.272-85.333-85.333-85.333zM85.333 64h85.205l0.128 255.957h-85.333v-255.957zM853.333 319.957v-255.957h85.205l0.128 255.957h-85.333z" />
<glyph unicode="&#xe94b;" glyph-name="headphones-microphone" d="M998.144 67.456l-298.667-128c-5.291-2.304-11.008-3.456-16.811-3.456h-213.333c-23.552 0-42.667 19.072-42.667 42.667v42.667c0 23.595 19.115 42.667 42.667 42.667h85.333c23.595 0 42.667-19.072 42.667-42.667h76.587l198.912 85.248h-19.499c-47.061 0-85.333 38.315-85.333 85.333v170.667c0 47.061 38.272 85.333 85.333 85.333h85.333c0 235.307-191.403 426.752-426.667 426.752s-426.667-191.445-426.667-426.752h85.333c47.061 0 85.333-38.272 85.333-85.333v-170.667c0-47.019-38.272-85.333-85.333-85.333h-85.333c-47.061 0-85.333 38.315-85.333 85.333v256c0 282.368 229.675 512.085 512 512.085s512-229.717 512-512.085v-341.248c0-17.067-10.155-32.512-25.856-39.211zM85.333 191.915h85.205l0.128 170.667h-85.333v-170.667zM853.333 362.581v-170.667h85.205l0.128 170.667h-85.333z" />
<glyph unicode="&#xe94c;" glyph-name="heart" d="M937.6 444.416c-0.256-0.299-0.256-0.683-0.512-0.981l-340.608-422.784c-24.021-27.221-56.064-41.984-89.088-41.984-33.067 0-65.067 14.763-87.851 40.491l-341.803 424.277c-0.256 0.299-0.299 0.725-0.555 1.024-103.083 109.269-102.272 283.307 3.328 390.912 51.925 52.864 121.003 81.963 194.432 81.963h0.043c71.893 0 139.349-28.245 190.891-79.019 0.256-0.256 0.64-0.299 0.939-0.512l40.405-34.859 40.96 34.987c0.299 0.256 0.683 0.299 0.981 0.555 51.541 50.688 118.912 78.848 190.763 78.848v0c73.472 0 142.507-29.141 194.389-81.963 105.557-107.605 106.368-281.728 3.285-390.955zM874.24 775.339c-35.883 36.523-83.584 56.661-134.315 56.661v0c-50.773 0-98.517-20.139-134.443-56.704-0.427-0.469-1.067-0.597-1.493-1.024-0.512-0.469-0.683-1.067-1.195-1.536l-68.096-58.155c-1.237-1.067-2.731-1.451-4.053-2.347-2.816-1.963-5.547-3.883-8.704-5.077-0.853-0.299-1.707-0.299-2.56-0.555-3.968-1.195-7.893-2.603-12.032-2.603-5.931 0-11.733 1.707-17.28 4.267-0.171 0.085-0.341 0.213-0.469 0.299-3.371 1.579-6.699 3.115-9.643 5.632l-68.053 58.667c-0.469 0.427-0.64 1.024-1.109 1.408-0.427 0.427-1.024 0.555-1.493 1.024-35.883 36.565-83.584 56.704-134.315 56.704h-0.043c-50.731 0-98.475-20.139-134.4-56.704-74.325-75.733-74.325-199.083 0.043-274.944 0.512-0.555 0.64-1.237 1.152-1.749 0.469-0.555 1.152-0.768 1.579-1.365l340.565-422.741c11.093-12.459 34.56-13.995 48.256 1.493l339.371 421.248c0.427 0.597 1.109 0.811 1.579 1.323 0.469 0.555 0.64 1.237 1.152 1.792 74.325 75.861 74.325 199.211 0 274.987z" />
<glyph unicode="&#xe94d;" glyph-name="help" d="M512-64c-282.325 0-512 229.675-512 512s229.675 512 512 512c282.325 0 512-229.675 512-512s-229.675-512-512-512zM918.997 320h-186.624c-22.357-38.357-54.016-70.016-92.373-92.373v-186.624c132.48 41.771 237.227 146.517 278.997 278.997zM512 618.581c-94.123 0-170.667-76.544-170.667-170.581 0-94.123 76.544-170.667 170.667-170.667s170.667 76.544 170.667 170.667c0 94.037-76.544 170.581-170.667 170.581zM512 21.333c14.421 0 28.629 0.768 42.667 2.176v172.8c-13.952-2.347-28.075-4.309-42.667-4.309s-28.715 1.963-42.667 4.309v-172.8c14.037-1.408 28.245-2.176 42.667-2.176zM384 41.003v186.624c-38.357 22.357-70.016 54.016-92.373 92.373h-186.624c41.771-132.48 146.517-237.227 278.997-278.997zM85.333 448c0-14.421 0.768-28.629 2.176-42.667h172.8c-2.347 13.952-4.309 28.075-4.309 42.667s1.963 28.715 4.309 42.667h-172.8c-1.408-14.037-2.176-28.245-2.176-42.667zM105.003 576h186.624c22.357 38.315 54.059 69.973 92.373 92.331v186.667c-132.48-41.771-237.227-146.517-278.997-278.997zM512 874.667c-14.421 0-28.629-0.768-42.667-2.176v-172.885c13.952 2.347 28.075 4.309 42.667 4.309s28.715-1.963 42.667-4.309v172.885c-14.037 1.408-28.245 2.176-42.667 2.176zM640 854.997v-186.667c38.315-22.357 70.016-54.016 92.373-92.331h186.624c-41.771 132.48-146.517 237.227-278.997 278.997zM763.691 490.667c2.347-13.952 4.309-28.075 4.309-42.667s-1.963-28.715-4.309-42.667h172.8c1.408 14.037 2.176 28.245 2.176 42.667s-0.768 28.629-2.176 42.667h-172.8z" />
<glyph unicode="&#xe94e;" glyph-name="home" horiz-adv-x="1021" d="M1006.93 374.551c-8.192-7.506-18.486-11.237-28.736-11.237-11.537 0-22.989 4.632-31.396 13.853l-11.151 12.267v-368.082c0-47.136-38.172-85.48-85.051-85.48h-170.145c-23.461 0-42.504 19.129-42.504 42.761 0 2.402 0.986 4.546 1.372 6.862v293.625l-256.568-1.287v-299.201c0-23.632-19.043-42.761-42.504-42.761h-170.145c-46.879 0-85.051 38.344-85.051 85.48v368.082l-11.151-12.267c-15.869-17.37-42.804-18.571-60.089-2.616-17.328 15.955-18.486 42.976-2.616 60.389l467.802 512.922c16.127 17.671 46.579 17.671 62.705 0l467.802-512.922c15.869-17.413 14.711-44.434-2.573-60.389zM853.769 479.203l-343.421 376.532-342.82-375.888v-458.066l130.171-0.3v256.354c0 47.136 38.172 85.48 85.051 85.48h255.196c46.922 0 85.051-38.344 85.051-85.48v-256.354l130.772 0.3v457.422z" />
<glyph unicode="&#xe94f;" glyph-name="hourglass" d="M853.333 874.667h-85.333v-213.333c0-106.027-68.864-174.208-136.192-213.333 67.328-39.125 136.192-107.307 136.192-213.333v-213.333h85.333c23.552 0 42.667-19.072 42.667-42.667s-19.115-42.667-42.667-42.667h-682.667c-23.552 0-42.667 19.072-42.667 42.667s19.115 42.667 42.667 42.667h85.333v213.333c0 106.027 68.864 174.208 136.192 213.333-67.328 39.125-136.192 107.307-136.192 213.333v213.333h-85.333c-23.552 0-42.667 19.072-42.667 42.667s19.115 42.667 42.667 42.667h682.667c23.552 0 42.667-19.072 42.667-42.667s-19.115-42.667-42.667-42.667zM341.333 234.667v-213.333h341.333v213.333c0 121.728-151.040 168.363-172.544 170.752 1.835-0.256-168.789-39.765-168.789-170.752zM682.667 874.667h-341.333v-213.333c0-131.029 170.837-170.539 172.544-170.752 17.749 2.389 168.789 49.024 168.789 170.752v213.333z" />
<glyph unicode="&#xe950;" glyph-name="info" horiz-adv-x="1016" d="M867.029 85.973c-96.085-96.725-223.872-149.973-359.851-149.973s-263.765 53.248-359.851 149.973c-198.4 199.637-198.4 524.459 0 724.096 96.085 96.683 223.872 149.931 359.851 149.931s263.765-53.248 359.851-149.931c96.128-96.725 149.077-225.28 149.077-362.069 0-136.747-52.949-265.301-149.077-362.027zM807.083 749.696c-80.128 80.597-186.624 124.971-299.904 124.971s-219.776-44.373-299.904-124.971c-165.291-166.315-165.291-437.035 0-603.392 80.128-80.597 186.624-124.971 299.904-124.971s219.776 44.373 299.904 124.971c80.085 80.597 124.245 187.733 124.245 301.696s-44.16 221.099-124.245 301.696zM592.043 149.333h-169.643c-23.424 0-42.411 19.115-42.411 42.667 0 23.595 18.987 42.667 42.411 42.667h42.411v170.667h-42.411c-23.424 0-42.411 19.115-42.411 42.667s18.987 42.667 42.411 42.667h84.821c23.424 0 42.411-19.115 42.411-42.667v-213.333h42.411c23.424 0 42.411-19.072 42.411-42.667 0-23.552-18.987-42.667-42.411-42.667zM507.221 576c-46.763 0-84.821 38.315-84.821 85.419 0 47.019 38.059 85.248 84.821 85.248s84.821-38.229 84.821-85.248c0-47.104-38.059-85.419-84.821-85.419z" />
<glyph unicode="&#xe951;" glyph-name="key" d="M637.184 362.667c-59.904 0-115.541 18.261-162.261 49.024l-163.712-173.056 101.291-101.803c16.597-16.683 16.597-43.648 0-60.331-8.277-8.32-19.157-12.501-29.995-12.501-10.88 0-21.76 4.181-30.037 12.501l-99.797 100.267-65.664-69.376 98.133-98.56c16.555-16.683 16.555-43.648 0-60.331-8.32-8.32-19.157-12.501-30.037-12.501s-21.717 4.181-30.037 12.501l-126.635 127.232c0 0 0 0 0 0 0 0.043 0 0.043 0 0.043l-0.725 0.725c-1.877 1.877-2.731 4.224-4.181 6.272-1.664 2.475-3.755 4.693-4.864 7.381-1.067 2.603-1.237 5.376-1.792 8.064-0.512 2.645-1.493 5.205-1.493 7.893-0.043 2.731 0.853 5.291 1.323 7.936 0.469 2.773 0.555 5.547 1.579 8.149 0.939 2.475 2.816 4.523 4.224 6.784 1.493 2.389 2.432 4.992 4.437 7.083l314.923 332.843c-44.16 52.139-71.851 118.784-71.851 192.427 0 164.651 133.333 298.667 297.173 298.667 163.968 0 297.344-134.016 297.344-298.667s-133.376-298.667-297.344-298.667zM637.184 874.667c-117.035 0-212.224-95.701-212.224-213.333s95.189-213.333 212.224-213.333c117.12 0 212.395 95.701 212.395 213.333s-95.275 213.333-212.395 213.333z" />
<glyph unicode="&#xe952;" glyph-name="layers" d="M1002.226 624.584l-469.779-256.278c-6.374-3.465-13.389-5.219-20.447-5.219s-14.074 1.754-20.447 5.219l-469.779 256.278c-13.731 7.486-22.244 21.859-22.244 37.516 0 15.614 8.513 30.030 22.244 37.473l469.779 256.278c12.748 6.93 28.147 6.93 40.895 0l469.779-256.278c13.689-7.443 22.244-21.859 22.244-37.473 0-15.656-8.555-30.030-22.244-37.516zM512 869.697l-380.503-207.598 380.503-207.64 380.589 207.64-380.589 207.598zM61.428 484.189c19.72 12.919 46.157 7.529 59.161-12.106 8.855-13.432 9.154-30.030 2.182-43.376l389.23-188.99 389.23 188.99c-6.973 13.304-6.673 29.901 2.182 43.333 13.004 19.678 39.441 25.025 59.161 12.149l42.734-28.19c12.79-8.47 20.105-23.142 19.079-38.457-0.984-15.357-10.181-28.917-23.955-35.633l-469.779-228.045c-5.903-2.909-12.277-4.32-18.651-4.32s-12.748 1.412-18.651 4.32l-469.779 228.045c-13.774 6.716-22.929 20.276-23.955 35.633-1.027 15.314 6.245 29.987 19.079 38.457l42.734 28.19zM61.428 270.646c19.72 12.919 46.157 7.529 59.161-12.106 8.855-13.432 9.154-30.030 2.182-43.376l389.23-188.99 389.23 188.99c-6.973 13.304-6.673 29.901 2.182 43.333 13.004 19.635 39.441 25.067 59.161 12.149l42.734-28.19c12.79-8.47 20.105-23.185 19.079-38.457-0.984-15.357-10.181-28.917-23.955-35.633l-469.779-228.088c-5.903-2.866-12.277-4.278-18.651-4.278s-12.748 1.412-18.651 4.278l-469.779 228.088c-13.774 6.716-22.929 20.276-23.955 35.633-1.027 15.271 6.245 29.987 19.079 38.457l42.734 28.19z" />
<glyph unicode="&#xe953;" glyph-name="left" d="M512-64c-282.325 0-512 229.675-512 512s229.675 512 512 512c282.325 0 512-229.675 512-512s-229.675-512-512-512zM512 874.667c-235.264 0-426.667-191.403-426.667-426.667s191.403-426.667 426.667-426.667c235.264 0 426.667 191.403 426.667 426.667s-191.403 426.667-426.667 426.667zM725.333 405.333h-323.669l55.168-55.168c16.683-16.683 16.683-43.648 0-60.331-8.32-8.32-19.243-12.501-30.165-12.501s-21.845 4.181-30.165 12.501l-128 128c-3.925 3.925-7.040 8.619-9.216 13.867-4.309 10.411-4.309 22.187 0 32.597 2.176 5.248 5.291 9.941 9.216 13.867l128 128c16.683 16.683 43.648 16.683 60.331 0s16.683-43.648 0-60.331l-55.168-55.168h323.669c23.552 0 42.667-19.115 42.667-42.667s-19.115-42.667-42.667-42.667z" />
</font>
</defs>
</svg>
